注册 登录  
 加关注
   显示下一条  |  关闭
温馨提示!由于新浪微博认证机制调整,您的新浪微博帐号绑定已过期,请重新绑定!立即重新绑定新浪微博》  |  关闭

逆风飞翔的鸟

追逐风中散落的默契~

 
 
 

日志

 
 
关于我

曾经迷惑于一份距离 曾经感动于一个传说 …… 在仆仆风中 我伸手 抓住你我的缘分 …… “傻傻”的你 能闻到风中 你我的默契吗?!

网易考拉推荐

【亚洲】Delete.My.Love.百变爱人  

2014-09-12 08:53:17|  分类: 亚洲 |  标签: |举报 |字号 订阅

  下载LOFTER 我的照片书  |
【亚洲】Delete.My.Love.百变爱人 - 歸鴻 - 逆风飞翔的鸟
◎片  名 Delete愛人/百变爱人
◎译  名 Delete My Love
◎年  代 2014
◎国  家 中国香港
◎类  别 喜剧/爱情
◎语  言 粤语/国语
◎字  幕 中文/英文
◎IMDB链接  http://www.imdb.com/title/tt3560762
◎片  长 103 Mins
◎导  演 叶念琛
◎主  演 王祖蓝
      王菀之
      许冠文
      王敏德
      元秋
      薛家燕
      庄思敏
      龙小菌
      方力申
      郭伟亮
      蔡瀚亿


◎簡  介

     苏波荣(王祖蓝 饰)是一个整天喊着怀才不遇,但又常常口不择言的小人物,在“马上发达顾问有限公司”工作,是由传销界教父马上发(许冠文 饰)所创办。苏波荣的同事经常出阴险招数偷苏波荣的创意抢功劳,令苏波荣在事业上毫无进展。

     本来事业失意,还可以用家庭温暖来弥补,可惜苏波荣却有一个自小已把他当成摇钱树的母亲,苏太(元秋 饰)在苏波荣十六岁做暑期工开始,已经过着半退休生活,这些年来从不工作,只顾着在儿子身上榨取每分每毫的血汗钱。

     苏波荣既没有事业上的满足感,也从未尝试过家庭的温暖,在友情上更加是遇人不淑。苏波荣有一知心好友华Dee(方力申 饰),华Dee的盲目讲义气的性格让他整天惹事之外,也常常连累好友苏波荣,苏波荣希望华Dee可以痛改前非,找份稳定工作,重新做人。

     幸好,苏波荣还有一个青梅竹马的女朋友钟家宝(王菀之 饰),钟家宝性格温婉贤淑,是苏波荣每次人生失意时的遮荫大树。苏波荣往往将在工作、家庭和友情上受过的怨气统统发泄在钟家宝身上,但难得宽容大方的钟家宝照单全收,在钟家宝面前,苏波荣才觉得自己是一个真男人,甚至是一个有点无理取闹的大男人,自私的苏波荣总是觉得钟家宝一生一世都会跟随着自己,不离不弃。

     苏波荣最近收到一个奇怪短信:“你有想过变走不喜欢的那个他/她?先转给一个朋友!祝你愿望成真!”被生活中不如意的事情包围的苏波荣,无意间转发了短信。故事发展下去,苏波荣会怎样利用这种匪夷所思的能力改变自己的命运?

     苏波荣真的会得到完美人生,永无后顾之忧的快乐?

     人生百变,让苏波荣陷入爆笑囧境,但是故事现在才刚刚开始…


General
ID                             : 1 (0x1)
Complete name                  : 00000.m2ts
Format                         : BDAV
Format/Info                    : Blu-ray Video
File size                      : 22.3 GiB
Duration                       : 1h 42mn
Overall bit rate mode          : Variable
Overall bit rate               : 31.1 Mbps
Maximum Overall bit rate       : 35.5 Mbps

Video
ID                             : 4113 (0x1011)
Menu ID                        : 1 (0x1)
Format                         : AVC
Format/Info                    : Advanced Video Codec
Format profile                 : High@L4.1
Format settings, CABAC         : Yes
Format settings, ReFrames      : 4 frames
Codec ID                       : 27
Duration                       : 1h 42mn
Bit rate mode                  : Variable
Bit rate                       : 28.6 Mbps
Maximum bit rate               : 30.0 Mbps
Width                          : 1 920 pixels
Height                         : 1 080 pixels
Display aspect ratio           : 16:9
Frame rate                     : 24.000 fps
Standard                       : NTSC
Color space                    : YUV
Chroma subsampling             : 4:2:0
Bit depth                      : 8 bits
Scan type                      : Progressive
Bits/(Pixel*Frame)             : 0.575
Stream size                    : 20.5 GiB (92%)
Color primaries                : BT.709
Transfer characteristics       : BT.709
Matrix coefficients            : BT.709

Audio #1
ID                             : 4352 (0x1100)
Menu ID                        : 1 (0x1)
Format                         : TrueHD / AC-3
Mode extension                 : CM (complete main)
Format settings, Endianness    : Big
Muxing mode                    : Stream extension
Codec ID                       : 131
Duration                       : 1h 42mn
Bit rate mode                  : Variable / Constant
Bit rate                       : 640 Kbps
Maximum bit rate               : 4 260 Kbps
Channel(s)                     : 6 channels
Channel positions              : Front: L C R, Side: L R, LFE
Sampling rate                  : 96.0 KHz / 48.0 KHz
Bit depth                      : 16 bits
Stream size                    : 470 MiB (2%)
Language                       : Chinese

Audio #2
ID                             : 4353 (0x1101)
Menu ID                        : 1 (0x1)
Format                         : TrueHD / AC-3
Mode extension                 : CM (complete main)
Format settings, Endianness    : Big
Muxing mode                    : Stream extension
Codec ID                       : 131
Duration                       : 1h 42mn
Bit rate mode                  : Variable / Constant
Bit rate                       : 640 Kbps
Maximum bit rate               : 4 278 Kbps
Channel(s)                     : 6 channels
Channel positions              : Front: L C R, Side: L R, LFE
Sampling rate                  : 96.0 KHz / 48.0 KHz
Bit depth                      : 16 bits
Stream size                    : 470 MiB (2%)
Language                       : Chinese

Text #1
ID                             : 4608 (0x1200)
Menu ID                        : 1 (0x1)
Format                         : PGS
Codec ID                       : 144
Language                       : Chinese

Text #2
ID                             : 4609 (0x1201)
Menu ID                        : 1 (0x1)
Format                         : PGS
Codec ID                       : 144
Language                       : Chinese

Text #3
ID                             : 4610 (0x1202)
Menu ID                        : 1 (0x1)
Format                         : PGS
Codec ID                       : 144
Language                       : English
  评论这张
 
阅读(68)| 评论(0)
推荐 转载

历史上的今天

评论

<#--最新日志,群博日志--> <#--推荐日志--> <#--引用记录--> <#--博主推荐--> <#--随机阅读--> <#--首页推荐--> <#--历史上的今天--> <#--被推荐日志--> <#--上一篇,下一篇--> <#-- 热度 --> <#-- 网易新闻广告 --> <#--右边模块结构--> <#--评论模块结构--> <#--引用模块结构--> <#--博主发起的投票-->
 
 
 
 
 
 
 
 
 
 
 
 
 
 

页脚

网易公司版权所有 ©1997-2017