注册 登录  
 加关注
   显示下一条  |  关闭
温馨提示!由于新浪微博认证机制调整,您的新浪微博帐号绑定已过期,请重新绑定!立即重新绑定新浪微博》  |  关闭

逆风飞翔的鸟

追逐风中散落的默契~

 
 
 

日志

 
 
关于我

曾经迷惑于一份距离 曾经感动于一个传说 …… 在仆仆风中 我伸手 抓住你我的缘分 …… “傻傻”的你 能闻到风中 你我的默契吗?!

网易考拉推荐

【动作】Bullet.2014.子弹  

2014-06-19 23:09:40|  分类: 动作 |  标签: |举报 |字号 订阅

  下载LOFTER 我的照片书  |
【动作】Bullet.2014.子弹 - 歸鴻 - 逆风飞翔的鸟
◎译  名 子弹
◎片  名 Bullet
◎年  代 2014
◎地  区 美国
◎类  别 动作
◎语  言 英语
◎上映日期 2014-03-07(英国)
◎IMDB链接  http://www.imdb.com/title/tt2544734/
◎片  长 87 min
◎导  演 Nick Lyon
◎主  演 丹尼·特乔 Danny Trejo  ....Frank
      Torsten Voges  ....Kruger
      乔纳森·班克斯 Jonathan Banks  ....Carlito Kane
      Kyle Villalovos  ....Mario
      伊芙·茂洛 Eve Mauro  ....Samantha
      Seri DeYoung  ....Jessica
      Eric St. John  ....Estes
      婷塞尔·柯瑞 Tinsel Korey  ....Vanessa
      埃里克·艾特巴里 Eric Etebari  ....Manual Kane
      约翰·萨维奇 John Savage  ....Governor Johnson
      茱莉亚·迭泽 Julia Dietze  ....Brooke Madison (rumored)
      Derek Anthony  ....Captain Blanche
      罗伯特·布兰奇 Robert Blanche  ....Tarvis


◎简    介

    丹尼·特乔扮演的绰号为`子弹`的警察,其孙子被绑架……


General
ID                             : 1 (0x1)
Complete name                  : 00000.m2ts
Format                         : BDAV
Format/Info                    : Blu-ray Video
File size                      : 16.0 GiB
Duration                       : 1h 27mn
Overall bit rate mode          : Variable
Overall bit rate               : 26.3 Mbps
Maximum Overall bit rate       : 35.5 Mbps

Video
ID                             : 4113 (0x1011)
Menu ID                        : 1 (0x1)
Format                         : AVC
Format/Info                    : Advanced Video Codec
Format profile                 : High@L4.1
Format settings, CABAC         : Yes
Format settings, ReFrames      : 4 frames
Codec ID                       : 27
Duration                       : 1h 27mn
Bit rate mode                  : Variable
Bit rate                       : 24.8 Mbps
Maximum bit rate               : 39.5 Mbps
Width                          : 1 920 pixels
Height                         : 1 080 pixels
Display aspect ratio           : 16:9
Frame rate                     : 23.976 fps
Color space                    : YUV
Chroma subsampling             : 4:2:0
Bit depth                      : 8 bits
Scan type                      : Progressive
Bits/(Pixel*Frame)             : 0.498
Stream size                    : 15.1 GiB (94%)

Audio
ID                             : 4352 (0x1100)
Menu ID                        : 1 (0x1)
Format                         : TrueHD / AC-3
Mode extension                 : CM (complete main)
Format settings, Endianness    : Big
Muxing mode                    : Stream extension
Codec ID                       : 131
Duration                       : 1h 27mn
Bit rate mode                  : Variable / Constant
Bit rate                       : 448 Kbps
Maximum bit rate               : 4 185 Kbps
Channel(s)                     : 6 channels
Channel positions              : Front: L C R, Side: L R, LFE
Sampling rate                  : 48.0 KHz
Bit depth                      : 16 bits
Stream size                    : 280 MiB (2%)
Language                       : English

Text #1
ID                             : 4608 (0x1200)
Menu ID                        : 1 (0x1)
Format                         : PGS
Codec ID                       : 144
Language                       : Chinese

Text #2
ID                             : 4609 (0x1201)
Menu ID                        : 1 (0x1)
Format                         : PGS
Codec ID                       : 144
Language                       : Chinese

Text #3
ID                             : 4610 (0x1202)
Menu ID                        : 1 (0x1)
Format                         : PGS
Codec ID                       : 144
Language                       : English
  评论这张
 
阅读(61)| 评论(0)
推荐 转载

历史上的今天

在LOFTER的更多文章

评论

<#--最新日志,群博日志--> <#--推荐日志--> <#--引用记录--> <#--博主推荐--> <#--随机阅读--> <#--首页推荐--> <#--历史上的今天--> <#--被推荐日志--> <#--上一篇,下一篇--> <#-- 热度 --> <#-- 网易新闻广告 --> <#--右边模块结构--> <#--评论模块结构--> <#--引用模块结构--> <#--博主发起的投票-->
 
 
 
 
 
 
 
 
 
 
 
 
 
 

页脚

网易公司版权所有 ©1997-2017