注册 登录  
 加关注
   显示下一条  |  关闭
温馨提示!由于新浪微博认证机制调整,您的新浪微博帐号绑定已过期,请重新绑定!立即重新绑定新浪微博》  |  关闭

逆风飞翔的鸟

追逐风中散落的默契~

 
 
 

日志

 
 
关于我

曾经迷惑于一份距离 曾经感动于一个传说 …… 在仆仆风中 我伸手 抓住你我的缘分 …… “傻傻”的你 能闻到风中 你我的默契吗?!

网易考拉推荐

【亚洲】From.Vegas.to.Macau.2014.赌城风云  

2014-06-18 16:49:46|  分类: 亚洲 |  标签: |举报 |字号 订阅

  下载LOFTER 我的照片书  |
【亚洲】From.Vegas.to.Macau.2014.赌城风云 - 歸鴻 - 逆风飞翔的鸟
◎片  名 赌城风云/澳门风云
◎译  名 From Vegas to Macau
◎年  代 2014
◎国  家 中国香港
◎类  别 剧情
◎语  言 粤语/国语
◎字  幕 中文/英文
◎IMDB链接  http://www.imdb.com/title/tt3444184
◎片  长 89 Mins
◎导  演 王晶/钟少雄
◎主  演 周润发
      谢霆锋
      杜汶泽
      景甜
      高虎
      吴辰君
      许绍雄
      张晋
      王敏德
      沈震轩
      童菲
      伍允龙


◎簡  介

    闻名中外,曾担任美国赌场保安总顾问的魔术手石一坚(周润发 饰),终回流澳门退休,更宴请各方朋友到来庆祝生日宴。其中好友Benz哥(许绍雄 饰)与他的儿子晒冷(谢霆锋 饰)以及外甥牛必胜(杜汶泽 饰),更特别由香港来到澳门到贺。  

    翌日,中国、香港以及澳门三地警方,竟不相约而同找上石一坚,希望他能够重出江湖帮忙对付DOA组织集团的高先生(高虎 饰),但坚却以退休为由婉拒了事。  

    另一边厢,冷竟与牛必胜一起找上门,希望坚收他俩为徙弟,坚哥虽欣赏小冷,但奈何经已退休,只好拒绝,但看在Benz哥份上,就招待他一夜。谁不知,当晚竟遇上了杀手(张晋 饰),杀手们不问原因直接追击小冷以及坚哥爱女阿彩(童菲 饰)。期间虽有中国公安洛欣(景甜 饰)相救,但阿彩终难逃一劫,被害至失忆。  

    明查暗访下才知道,幕后的黑手竟是高先生。事情又岂会是无缘无故发生,坚与小冷二人连手,加上女公安洛欣三人,布下奇谋妙计对付高先生,斗智斗力,誓要查个水落石出,将他绳之于法…


General
ID                             : 1 (0x1)
Complete name                  : 00000.m2ts
Format                         : BDAV
Format/Info                    : Blu-ray Video
File size                      : 24.8 GiB
Duration                       : 1h 33mn
Overall bit rate mode          : Variable
Overall bit rate               : 38.0 Mbps
Maximum Overall bit rate       : 35.5 Mbps

Video
ID                             : 4113 (0x1011)
Menu ID                        : 1 (0x1)
Format                         : AVC
Format/Info                    : Advanced Video Codec
Format profile                 : High@L4.1
Format settings, CABAC         : Yes
Format settings, ReFrames      : 4 frames
Codec ID                       : 27
Duration                       : 1h 33mn
Bit rate mode                  : Variable
Bit rate                       : 35.2 Mbps
Maximum bit rate               : 34.0 Mbps
Width                          : 1 920 pixels
Height                         : 1 080 pixels
Display aspect ratio           : 16:9
Frame rate                     : 24.000 fps
Standard                       : NTSC
Color space                    : YUV
Chroma subsampling             : 4:2:0
Bit depth                      : 8 bits
Scan type                      : Progressive
Bits/(Pixel*Frame)             : 0.707
Stream size                    : 23.0 GiB (93%)
Color primaries                : BT.709
Transfer characteristics       : BT.709
Matrix coefficients            : BT.709

Audio #1
ID                             : 4352 (0x1100)
Menu ID                        : 1 (0x1)
Format                         : TrueHD / AC-3
Mode extension                 : CM (complete main)
Format settings, Endianness    : Big
Muxing mode                    : Stream extension
Codec ID                       : 131
Duration                       : 1h 33mn
Bit rate mode                  : Variable / Constant
Bit rate                       : 640 Kbps
Maximum bit rate               : 5 304 Kbps
Channel(s)                     : 6 channels
Channel positions              : Front: L C R, Side: L R, LFE
Sampling rate                  : 96.0 KHz / 48.0 KHz
Bit depth                      : 16 bits
Stream size                    : 428 MiB (2%)
Language                       : Chinese

Audio #2
ID                             : 4353 (0x1101)
Menu ID                        : 1 (0x1)
Format                         : TrueHD / AC-3
Mode extension                 : CM (complete main)
Format settings, Endianness    : Big
Muxing mode                    : Stream extension
Codec ID                       : 131
Duration                       : 1h 33mn
Bit rate mode                  : Variable / Constant
Bit rate                       : 640 Kbps
Maximum bit rate               : 5 274 Kbps
Channel(s)                     : 6 channels
Channel positions              : Front: L C R, Side: L R, LFE
Sampling rate                  : 96.0 KHz / 48.0 KHz
Bit depth                      : 16 bits
Stream size                    : 428 MiB (2%)
Language                       : Chinese

Text #1
ID                             : 4608 (0x1200)
Menu ID                        : 1 (0x1)
Format                         : PGS
Codec ID                       : 144
Language                       : Chinese

Text #2
ID                             : 4609 (0x1201)
Menu ID                        : 1 (0x1)
Format                         : PGS
Codec ID                       : 144
Language                       : Chinese

Text #3
ID                             : 4610 (0x1202)
Menu ID                        : 1 (0x1)
Format                         : PGS
Codec ID                       : 144
Language                       : English
  评论这张
 
阅读(88)| 评论(0)
推荐 转载

历史上的今天

在LOFTER的更多文章

评论

<#--最新日志,群博日志--> <#--推荐日志--> <#--引用记录--> <#--博主推荐--> <#--随机阅读--> <#--首页推荐--> <#--历史上的今天--> <#--被推荐日志--> <#--上一篇,下一篇--> <#-- 热度 --> <#-- 网易新闻广告 --> <#--右边模块结构--> <#--评论模块结构--> <#--引用模块结构--> <#--博主发起的投票-->
 
 
 
 
 
 
 
 
 
 
 
 
 
 

页脚

网易公司版权所有 ©1997-2017