注册 登录  
 加关注
   显示下一条  |  关闭
温馨提示!由于新浪微博认证机制调整,您的新浪微博帐号绑定已过期,请重新绑定!立即重新绑定新浪微博》  |  关闭

逆风飞翔的鸟

追逐风中散落的默契~

 
 
 

日志

 
 
关于我

曾经迷惑于一份距离 曾经感动于一个传说 …… 在仆仆风中 我伸手 抓住你我的缘分 …… “傻傻”的你 能闻到风中 你我的默契吗?!

网易考拉推荐

【亚洲】Flowers.2010.花  

2014-06-18 16:45:54|  分类: 亚洲 |  标签: |举报 |字号 订阅

  下载LOFTER 我的照片书  |
【亚洲】Flowers.2010.花 - 歸鴻 - 逆风飞翔的鸟
◎译  名 花
◎别  名  恋恋·凡花(港)
◎片  名 Flowers
◎年  代 2010年
◎影片类型 剧情
◎国  家 日本        
◎对白语言 日语  
◎IMDB链接  http://www.imdb.com/title/tt1637681/
◎片  长  110 min
◎导  演 小泉德宏    
◎主  演 苍井优
            铃木京香
            竹内结子
            田中丽奈
            仲间由纪惠
            广末凉子
            大泽隆夫
            长门裕之
            盐见三省
            平田满
            井之原快彦
            三浦贵大
            野响子
            骏河太郎
            河本准一


◎简  介 

    1936年春天,依然盛行传统成规的日本。

    父母给凛安排好了婚事,对方是个素未谋面的人,凛为此相当烦恼。

    父亲寅雄有着一家之主说一不二的权威,母亲文江一直顺从忍耐。看在眼里的凛觉得如果自己接受了婚事,就会像母亲那样过一辈子。她希望去女子学校读书,难道女性不能更自由地生活么?在犹豫不安中,婚礼之日到来了。凛穿着礼服从家里跑了出去。

    1954年,飞速发展的日本。

    时光飞逝,凛的三个女儿薰、翠、慧都已经长大成人。

    大女儿薰在大学念书时结识了教授真中,两人情投意合,薰一毕业就结了婚。薰认为自己的幸福是爱丈夫一生、支持丈夫一生,每天过着充实的日子。某个休息日,薰一边做饭,一边等待外出的真中回家,然而……

    二女儿翠在一家大出版社工作,是当时还不多见的职业女性。她有着竹子那样傲直要强的性格,为了不输给男人而努力工作,经常坚持己见与人争论。男朋友菊池突如其来的求婚打乱了翠的心,让她在结婚和工作之间摇摆不定,开始仔细思量自己的人生之路。凛和自己负责联络的作家远藤谈心,却依然没法简单地做出决定。

    暑假来临,翠回到故乡,发现姐姐薰已经到了。晚上,翠把自己心里的迷惘告诉了姐姐,一时激动哭了起来。她意识到只从男女之分的角度来看待事情的自己太不成熟。

    1977年,完成经济高速成长、人们安居乐业的日本。

    三女儿慧和丈夫晴夫、女儿奏一家三口之家,在郊区的居民区过着平淡而幸福日子。慧怀上了期盼已久的第二胎,然而医生告诉生来身体羸弱的慧,生第二胎会有危险。作为三姐妹中的老幺,慧在大家的宠爱中长大,她怎么也不忍心放弃即将来到这个美好世界的新生命。晴夫很担心妻子反对生下孩子,但看到她下了决心转而全力支持。
年号从昭和变成平成,引来浑迷时代的日本。

    2009年,十五年前奏为了实现当钢琴家的梦想来到东京,如今她感觉自己的才能已经发挥到顶无法再进一步,而交往多年比她年纪小的男朋友也提出了分手。雪上加霜的是,奏发现自己怀孕了。奏决定生下这个孩子,然而又不禁质疑,已经失去梦想和自信的我能够独力抚养这个孩子么?听到外婆凛辞世的消息后,奏回到了久违的老家。

    比奏小五岁的妹妹佳,她不像姐姐那样成绩拔尖、有钢琴天赋,从小在亲人的比较中长大。佳成了家,有了个可爱的儿子,一直笑嘻嘻。她在心中默默决定要像母亲慧那样、乐观向上地生活。

    一直追逐理想的奏真心羡慕获得女人的幸福的佳。如今她正立于人生的歧路,必须做出抉择。佳偶然发现了一封信,那是32年前母亲慧写给两个女儿的……

    从凛逃婚到奏下决心,六名女性、三代日本人,时代在变迁,而人们不变地烦恼着、爱着、生活着。每个人的脚步连接在一起,通向未来……


General
ID                             : 1 (0x1)
Complete name                  : 00000.m2ts
Format                         : BDAV
Format/Info                    : Blu-ray Video
File size                      : 20.8 GiB
Duration                       : 1h 49mn
Overall bit rate mode          : Variable
Overall bit rate               : 27.3 Mbps
Maximum Overall bit rate       : 35.5 Mbps

Video
ID                             : 4113 (0x1011)
Menu ID                        : 1 (0x1)
Format                         : AVC
Format/Info                    : Advanced Video Codec
Format profile                 : High@L4.1
Format settings, CABAC         : Yes
Format settings, ReFrames      : 4 frames
Codec ID                       : 27
Duration                       : 1h 49mn
Bit rate mode                  : Variable
Bit rate                       : 25.5 Mbps
Maximum bit rate               : 36.0 Mbps
Width                          : 1 920 pixels
Height                         : 1 080 pixels
Display aspect ratio           : 16:9
Frame rate                     : 23.976 fps
Standard                       : NTSC
Color space                    : YUV
Chroma subsampling             : 4:2:0
Bit depth                      : 8 bits
Scan type                      : Progressive
Bits/(Pixel*Frame)             : 0.513
Stream size                    : 19.5 GiB (94%)
Color primaries                : BT.709
Transfer characteristics       : BT.709
Matrix coefficients            : BT.709

Audio
ID                             : 4352 (0x1100)
Menu ID                        : 1 (0x1)
Format                         : TrueHD / AC-3
Mode extension                 : CM (complete main)
Format settings, Endianness    : Big
Muxing mode                    : Stream extension
Codec ID                       : 131
Duration                       : 1h 49mn
Bit rate mode                  : Variable / Constant
Bit rate                       : 640 Kbps
Maximum bit rate               : 2 343 Kbps
Channel(s)                     : 6 channels
Channel positions              : Front: L C R, Side: L R, LFE
Sampling rate                  : 48.0 KHz
Bit depth                      : 16 bits
Stream size                    : 500 MiB (2%)
Language                       : Japanese

Text #1
ID                             : 4608 (0x1200)
Menu ID                        : 1 (0x1)
Format                         : PGS
Codec ID                       : 144
Language                       : Chinese

Text #2
ID                             : 4609 (0x1201)
Menu ID                        : 1 (0x1)
Format                         : PGS
Codec ID                       : 144
Language                       : English
  评论这张
 
阅读(90)| 评论(0)
推荐 转载

历史上的今天

在LOFTER的更多文章

评论

<#--最新日志,群博日志--> <#--推荐日志--> <#--引用记录--> <#--博主推荐--> <#--随机阅读--> <#--首页推荐--> <#--历史上的今天--> <#--被推荐日志--> <#--上一篇,下一篇--> <#-- 热度 --> <#-- 网易新闻广告 --> <#--右边模块结构--> <#--评论模块结构--> <#--引用模块结构--> <#--博主发起的投票-->
 
 
 
 
 
 
 
 
 
 
 
 
 
 

页脚

网易公司版权所有 ©1997-2017