注册 登录  
 加关注
   显示下一条  |  关闭
温馨提示!由于新浪微博认证机制调整,您的新浪微博帐号绑定已过期,请重新绑定!立即重新绑定新浪微博》  |  关闭

逆风飞翔的鸟

追逐风中散落的默契~

 
 
 

日志

 
 
关于我

曾经迷惑于一份距离 曾经感动于一个传说 …… 在仆仆风中 我伸手 抓住你我的缘分 …… “傻傻”的你 能闻到风中 你我的默契吗?!

网易考拉推荐

【动作】Ninja.Shadow.Of.A.Tear.2013.忍者2:泪影  

2014-03-16 13:56:27|  分类: 动作 |  标签: |举报 |字号 订阅

  下载LOFTER 我的照片书  |
【动作】Ninja.Shadow.Of.A.Tear.2013.忍者2:泪影 - 歸鴻 - 逆风飞翔的鸟
◎译    名   忍者2:泪影/忍者2
◎片    名   Ninja: Shadow Of A Tear
◎年    代   2013
◎国    家   泰国/美国
◎类    别   动作/惊悚/犯罪
◎语    言   英语
◎IMDB链接   http://www.imdb.com/title/tt2458106/
◎片    长   95 min
◎导    演   艾萨克·佛罗伦汀 Isaac Florentine
◎主    演   斯科特·阿金斯 Scott Adkins  ....Casey
             维他亚·潘斯林加姆 Vithaya Pansringarm  ....General Sung
             罗恩·斯穆安伯格 Ron Smoorenburg  ....Dojo Fighter
             小杉健 Kane Kosugi  ....Nakabara
             Tim Man  ....Myat
             Charlie Ruedpokanon  ....Thug 1
             Patrick Tang  ....Thug 2
             肘井美佳 Mika Hijii  ....Namiko
             菅田俊 Shun Sugata  ....Goro
             Mukesh Bhatt  ....Mike
             Erika Nagamine  ....Jewelry Store Worker
             Jawed El Berni  ....Lucas
             David Bueno  ....Bald Compound Guard
             Tawatwong Piyacysin  ....Iron Man
             Yuhkoh Matsuguchi  ....Hulking Man
             Yasuhiko Miyauchi  ....Shopkeeper
             Pim Bubear  ....Karate Fighter
             Surawoot Spiratana  ....SPDC Guard
             Takahisa Ishiko  ....Detective


◎简 介

    身怀绝技、武功高强的凯西·伯曼(斯科特·阿金 Scott Adkins 饰)即将和他最爱的女子奈美子(肘井美佳 饰)步入婚姻殿堂,并迎来属于他们的爱情结晶。某晚,凯西外出购物,而独自在家的奈美子却被入侵者残忍杀害。压抑不住心底的愤懑与悲伤,凯西放纵怒火的喷薄。在此之后,他洗却前尘,背着行囊来到故交中原(小杉健 饰)位于泰国的古贺道场修行,但是丧妻之痛令这个孔武男子无法控制自己的情绪,有如随时暴走的猛兽。某日,道场一位道友被人杀害,而凶手作案手法与杀害奈美子的凶手如出一辙。从中原口中得知,这一切可能正与当年和道场多有瓜葛、而如今成为金三角一代黑帮头目的五郎(菅田俊 饰)所为。

    背负着深仇大恨,凯西再度上路……  


General
ID                             : 1 (0x1)
Complete name                  : 00000.m2ts
Format                         : BDAV
Format/Info                    : Blu-ray Video
File size                      : 16.3 GiB
Duration                       : 1h 34mn
Overall bit rate mode          : Variable
Overall bit rate               : 24.6 Mbps
Maximum Overall bit rate       : 35.5 Mbps

Video
ID                             : 4113 (0x1011)
Menu ID                        : 1 (0x1)
Format                         : AVC
Format/Info                    : Advanced Video Codec
Format profile                 : High@L4.1
Format settings, CABAC         : Yes
Format settings, ReFrames      : 2 frames
Codec ID                       : 27
Duration                       : 1h 34mn
Bit rate mode                  : Variable
Bit rate                       : 22.9 Mbps
Width                          : 1 920 pixels
Height                         : 1 080 pixels
Display aspect ratio           : 16:9
Frame rate                     : 23.976 fps
Color space                    : YUV
Chroma subsampling             : 4:2:0
Bit depth                      : 8 bits
Scan type                      : Progressive
Bits/(Pixel*Frame)             : 0.462
Stream size                    : 15.2 GiB (93%)

Audio
ID                             : 4352 (0x1100)
Menu ID                        : 1 (0x1)
Format                         : TrueHD / AC-3
Mode extension                 : CM (complete main)
Format settings, Endianness    : Big
Muxing mode                    : Stream extension
Codec ID                       : 131
Duration                       : 1h 34mn
Bit rate mode                  : Variable / Constant
Bit rate                       : 640 Kbps
Maximum bit rate               : 2 943 Kbps
Channel(s)                     : 6 channels
Channel positions              : Front: L C R, Side: L R, LFE
Sampling rate                  : 48.0 KHz
Bit depth                      : 16 bits
Stream size                    : 434 MiB (3%)
Language                       : English

Text #1
ID                             : 4608 (0x1200)
Menu ID                        : 1 (0x1)
Format                         : PGS
Codec ID                       : 144
Delay relative to video        : 14s 598ms
Language                       : Chinese

Text #2
ID                             : 4609 (0x1201)
Menu ID                        : 1 (0x1)
Format                         : PGS
Codec ID                       : 144
Delay relative to video        : 14s 598ms
Language                       : Chinese

Text #3
ID                             : 4610 (0x1202)
Menu ID                        : 1 (0x1)
Format                         : PGS
Codec ID                       : 144
Delay relative to video        : 12s 971ms
Language                       : English

Text #4
ID                             : 4611 (0x1203)
Menu ID                        : 1 (0x1)
Format                         : PGS
Codec ID                       : 144
Delay relative to video        : 14s 723ms
Language                       : Spanish
  评论这张
 
阅读(108)| 评论(0)
推荐 转载

历史上的今天

在LOFTER的更多文章

评论

<#--最新日志,群博日志--> <#--推荐日志--> <#--引用记录--> <#--博主推荐--> <#--随机阅读--> <#--首页推荐--> <#--历史上的今天--> <#--被推荐日志--> <#--上一篇,下一篇--> <#-- 热度 --> <#-- 网易新闻广告 --> <#--右边模块结构--> <#--评论模块结构--> <#--引用模块结构--> <#--博主发起的投票-->
 
 
 
 
 
 
 
 
 
 
 
 
 
 

页脚

网易公司版权所有 ©1997-2017