注册 登录  
 加关注
   显示下一条  |  关闭
温馨提示!由于新浪微博认证机制调整,您的新浪微博帐号绑定已过期,请重新绑定!立即重新绑定新浪微博》  |  关闭

逆风飞翔的鸟

追逐风中散落的默契~

 
 
 

日志

 
 
关于我

曾经迷惑于一份距离 曾经感动于一个传说 …… 在仆仆风中 我伸手 抓住你我的缘分 …… “傻傻”的你 能闻到风中 你我的默契吗?!

网易考拉推荐

【动作】A.Bronx.Tale.1993.布朗克斯的故事  

2014-03-16 13:16:52|  分类: 动作 |  标签: |举报 |字号 订阅

  下载LOFTER 我的照片书  |
【动作】A.Bronx.Tale.1993.布朗克斯的故事 - 歸鴻 - 逆风飞翔的鸟
◎译  名 布朗克斯的故事/四海情深/不一样的童年
◎片  名 A Bronx Tale
◎年  代 1993
◎国  家 美国
◎类  别 犯罪/剧情
◎IMDB链接  http://www.imdb.com/title/tt0106489/
◎语  言 英语
◎字  幕 中文
◎片  长 121 mins 33 seconds
◎导  演 罗伯特·德尼罗 Robert De Niro
◎主  演 罗伯特·德尼罗 Robert De Niro ....Lorenzo Anello
      查兹·帕尔明特瑞 Chazz Palminteri ....Sonny
      李洛·布兰卡托 Lillo Brancato ....Calogero ‘C‘ Anello (age 17)
      弗朗西斯·卡普拉 Francis Capra ....Calogero ‘C‘ Anello (age 9)
      Taral Hicks ....Jane Williams
      Kathrine Narducci ....Rosina Anello
      Clem Caserta ....Jimmy Whispers
      Alfred Sauchelli Jr. ....Bobby Bars
      Frank Pietrangolare ....Danny K.O
      乔·佩西 Joe Pesci ....Carmine
      Robert D‘Andrea ....Tony Toupee
      Eddie Montanaro ....Eddie Mush
      Fred Fischer ....JoJo the Whale
      Dave Salerno ....Frankie Coffeecake
      Joe D‘Onofrio ....Slick (Age 17)
      Luigi D‘Angelo ....Aldo (Age 17)
      Louis Vanaria ....Crazy Mario (Age 17)
      Dominick Rocchio ....Ralphie (Age 17)
      Patrick Borriello ....Slick (Age 9) (as Patrick Boriello)
      Paul Perri ....Crazy Mario (Age 9)
      Thomas A. Ford ....Phil the Peddler (as Tommy A. Ford)
      Rocco Parente ....Driver (Hey Marie!)
      Joe Black ....Murdered Man
      Louis Gioia ....Last Rites Priest
      Mitch Kolpan ....Detective Belsik
      Phil Foglia ....Detective Vella
      Richard DeDomenico ....Priest
      Max Genovino ....Louie Dumps
      Ralph Napolitano ....Gino
      Steve Kendall ....Red Beard
      A.J. Ekoku ....A.J
      Sobe Bailey ....Willy
      多米尼克·隆巴多兹 Domenick Lombardozzi ....Nicky Zero (as Dominick Lombardozzi)
      Frank Caserta Sr. ....Old Gee
      Ed Derian ....Fight Announcer
      Larry Lederman ....Racetrack Announcer
      Gianna Ranaudo ....Tina
      Philip Garbarino ....Sonny‘s Killer
      Nicky Blair ....Jerry
      Joe Calvacca Jr. ....Doo Wop Group (Street)
      Anthony Etergineoso ....Doo Wop Group (Street)
      Louis Etergineoso ....Doo Wop Group (Street)
      Joe Laham ....Doo Wop Group (Street)
      Alan Lange ....Doo Wop Group (Street)
      Darell Grant ....Doo Wop Group (School)
      Demond Webber ....Doo Wop Group (School)
      Rhaman Thomas ....Doo Wop Group (School)
      Kacy Brooks ....Doo Wop Group (School)
      Jason Meighan ....Doo Wop Group (School)
      Steve Pendleton ....Satan‘s Messengers (as Steve Pendelton)
      John Tanuzzo Jr. ....Satan‘s Messengers
      Steve Bonge ....Satan‘s Messengers
      Greg Domey ....Satan‘s Messengers
      Mark Cafariella ....Satan‘s Messengers
      Butch Garcia ....Satan‘s Messengers
      Sonny Hurst ....Satan‘s Messengers
      David Batiste ....Angry Neighbor
      Derrick Simmons ....Angry Neighbor
      Ali Adbul Wahhab ....Angry Neighbor (as Ali S. Adbul Wahhab)
      Albert Attanasio ....Capo
      Pat Vacaro ....Capo
      Rocco ‘Girffe‘ Matra ....Soldier
      Frank Caserta Jr. ....Soldier
      Richie Ranieri ....Bodyguard
      Sal Cestaro ....Coffeemaker
      Larry Liedy ....Bartender
      Macky Anannlin ....Chez Bippy Customer
      Mike Morigi ....Chez Bippy Customer
      Garry Pastore ....Chez Bippy Customer (as Garry Blackwood)
      Anthony Corozzo ....Chez Bippy Customer
      Beansie ....Chez Bippy Customer
      Emily Degrass ....Chez Bippy Customer
      Johnny Motts ....Chez Bippy Customer
      Linda Lalicata ....Chez Bippy Customer
      Elizabeth Abassi ....Lady in Window (as Elizabeth Abbassi)
      Ida Bernardini ....Fish Store Customer
      Clem Caserta Jr. ....Pizza Man
      Frank Conti ....Fish Store Owner
      Chris Antley ....Jockey
      Nina Peterson ....Rachel
      Jean Cruguet ....Jockey
      Antonio Graell ....Jockey
      Richard Migliore ....Jockey
      Johnny Velazquez ....Jockey
      Tony Cordeiro ....Jockey
      Damian Bailey ....Willie‘s friend (bicyclist) (uncredited)
      Gino Cafarelli ....60‘s Vendor (uncredited)
      Chantay ....Jane‘s best friend (uncredited)
      William DeMeo ....Italian Guy In Bronx Playing Stickball (uncredited)
      Larry Guardino ....Bartender (uncredited)
      Ronnie Marmo ....Neighborhood Kid (uncredited)
      Judy Prianti ....Sophia (beautician) (uncredited)
      Eric Skoy ....Boxing Gambler (uncredited)


◎简  介

  安奴是一个住在意大利人集结的布朗斯区九岁孩子,对周围的黑帮生活十分向往,但他的父亲罗兰逊为人富有正义感,竭力帮助儿子不受区内的坏风气污染。安奴目击一宗凶杀案的发生,但拒绝供出凶手就是区内帮会人物辛尼,此事促使他俩展开一段俨如父子般的忘年友情。其后八年间,辛尼的势力逐渐扩大,罗兰逊深恐儿子会误入岐途的忧虑更为凝重,少年的安奴于是成为两位“父亲”的共同核心。


◎幕  后

  本片是罗伯特·德·尼罗执导的处女作,对查兹·帕敏特里的独角剧作进行了大胆的改编。德·尼罗在片中扮演美籍意大利人——公交车司机罗兰兹·阿内罗。主角是阿内罗的儿子卡洛格罗,由年轻的弗朗西丝·卡普拉扮演。在布鲁克斯,卡洛格罗家附近最有名的混混是浮华的“机灵小子”索尼。卡洛格罗目击了索尼杀人的经过,但为了街区的名誉,他拒绝向警方透露情况。索尼认为他够朋友,于是将黑道上的一些事情都教给这个敏感的小伙子。卡洛格罗虽然极为崇拜索尼,但也热爱和尊敬自己诚实正直的父亲。对这个十七岁的小伙子来说,如何决定生活的方向成了一种悲剧。


General
ID                             : 1 (0x1)
Complete name                  : 00000.m2ts
Format                         : BDAV
Format/Info                    : Blu-ray Video
File size                      : 22.1 GiB
Duration                       : 2h 1mn
Overall bit rate mode          : Variable
Overall bit rate               : 26.1 Mbps
Maximum Overall bit rate       : 35.5 Mbps

Video
ID                             : 4113 (0x1011)
Menu ID                        : 1 (0x1)
Format                         : AVC
Format/Info                    : Advanced Video Codec
Format profile                 : High@L4.1
Format settings, CABAC         : Yes
Format settings, ReFrames      : 4 frames
Codec ID                       : 27
Duration                       : 2h 1mn
Bit rate mode                  : Variable
Bit rate                       : 23.5 Mbps
Maximum bit rate               : 35.0 Mbps
Width                          : 1 920 pixels
Height                         : 1 080 pixels
Display aspect ratio           : 16:9
Frame rate                     : 23.976 fps
Standard                       : NTSC
Color space                    : YUV
Chroma subsampling             : 4:2:0
Bit depth                      : 8 bits
Scan type                      : Progressive
Bits/(Pixel*Frame)             : 0.473
Stream size                    : 19.9 GiB (90%)
Color primaries                : BT.709
Transfer characteristics       : BT.709
Matrix coefficients            : BT.709

Audio
ID                             : 4352 (0x1100)
Menu ID                        : 1 (0x1)
Format                         : PCM
Format settings, Endianness    : Big
Format settings, Sign          : Signed
Muxing mode                    : Blu-ray
Codec ID                       : 128
Duration                       : 2h 1mn
Bit rate mode                  : Constant
Bit rate                       : 1 536 Kbps
Channel(s)                     : 2 channels
Channel positions              : Front: L R
Sampling rate                  : 48.0 KHz
Bit depth                      : 16 bits
Stream size                    : 1.30 GiB (6%)
Language                       : English

Text #1
ID                             : 4608 (0x1200)
Menu ID                        : 1 (0x1)
Format                         : PGS
Codec ID                       : 144
Language                       : Chinese

Text #2
ID                             : 4609 (0x1201)
Menu ID                        : 1 (0x1)
Format                         : PGS
Codec ID                       : 144
Language                       : Chinese

Text #3
ID                             : 4610 (0x1202)
Menu ID                        : 1 (0x1)
Format                         : PGS
Codec ID                       : 144
Language                       : Chinese

Text #4
ID                             : 4611 (0x1203)
Menu ID                        : 1 (0x1)
Format                         : PGS
Codec ID                       : 144
Language                       : English
  评论这张
 
阅读(92)| 评论(0)
推荐 转载

历史上的今天

在LOFTER的更多文章

评论

<#--最新日志,群博日志--> <#--推荐日志--> <#--引用记录--> <#--博主推荐--> <#--随机阅读--> <#--首页推荐--> <#--历史上的今天--> <#--被推荐日志--> <#--上一篇,下一篇--> <#-- 热度 --> <#-- 网易新闻广告 --> <#--右边模块结构--> <#--评论模块结构--> <#--引用模块结构--> <#--博主发起的投票-->
 
 
 
 
 
 
 
 
 
 
 
 
 
 

页脚

网易公司版权所有 ©1997-2017