注册 登录  
 加关注
   显示下一条  |  关闭
温馨提示!由于新浪微博认证机制调整,您的新浪微博帐号绑定已过期,请重新绑定!立即重新绑定新浪微博》  |  关闭

逆风飞翔的鸟

追逐风中散落的默契~

 
 
 

日志

 
 
关于我

曾经迷惑于一份距离 曾经感动于一个传说 …… 在仆仆风中 我伸手 抓住你我的缘分 …… “傻傻”的你 能闻到风中 你我的默契吗?!

网易考拉推荐

【记录】TimeScapes.2012.时间的风景  

2014-03-14 09:36:29|  分类: 记录 |  标签: |举报 |字号 订阅

  下载LOFTER 我的照片书  |
【记录】TimeScapes.2012.时间的风景 - 歸鴻 - 逆风飞翔的鸟
◎译  名 时间的风景
◎片  名 Timescapes
◎年  代 2012
◎国  家 新西兰
◎类  别 纪录片
◎语  言 英语
◎IMDB链接  http://www.imdb.com/title/tt2297031/
◎片  长 0:48:21.982 (h:m:s.ms)
◎导  演 Tom Lowe


◎简  介 

  For Tom, timelapse started out as a hobby. Braving the conditions, he would camp out in places such as Yosemite, or Joshua Tree National Park, shooting the night sky, then editing the footage and uploading short films to Vimeo.com. People started to take notice, with some of his Vimeo videos racking up hundreds of thousands of views. Simultaneously, Lowe launched the Timescapes.org forum, the largest community of timelapse shooters on the internet, which has grown to over 5,000 members.
  This led to a chance encounter on the internet with New Zealand composer and entrepreneur Nigel “John” Stanford. After a brief email conversation, “TimeScapes” the movie was born, with Stanford agreeing to fund the movie and provide Tom with a 4K Red MX digital cinema camera, while Canon USA sponsored the film by providing Lowe with 5.6K 5D Mark II DSLRs and lenses.
  Production involved many hardships. Tom slept outdoors for 250 nights, sleeping on cots (without tents) under the stars next to his camera, while timelapse was being captured. During the middle of principle photography on “TimeScapes”, Lowe won the Astronomy Photographer of the year award in 2011, with the above image, ‘Blazing Bristlecone‘ - featuring a 4,000-year-old bristlecone pine tree against the Milky Way. Unbeknownst to the judges, the photo was actually just one frame of a time-lapse movie, which is featured in “TimeScapes”, the movie.
  During production, two trailers were released, which went on to gather over 3 million views.
  TimeScapes was shot in 5K resolution on Red Epic and Canon DLSR cameras, edited in 4K in Adobe Premiere and After Effects, and graded at 16-bit 4K at Light Iron Hollywood on a Quantel Pablo system, by colorist Ian Vertovec (“Girl with the Dragon Tattoo”,“Social Network”). 


This led to a chance encounter on the internet with New Zealand composer and entrepreneur Nigel “John” Stanford. After a brief email conversation, “TimeScapes” the movie was born, with Stanford agreeing to fund the movie and provide Tom with a 4K Red MX digital cinema camera, while Canon USA sponsored the film by providing Lowe with 5.6K 5D Mark II DSLRs and lenses.

Production involved many hardships. Tom slept outdoors for 250 nights, sleeping on cots (without tents) under the stars next to his camera, while timelapse was being captured. During the middle of principle photography on “TimeScapes”, Lowe won the Astronomy Photographer of the year award in 2011, with the above image, ‘Blazing Bristlecone‘ - featuring a 4,000-year-old bristlecone pine tree against the Milky Way. Unbeknownst to the judges, the photo was actually just one frame of a time-lapse movie, which is featured in “TimeScapes”, the movie.

During production, two trailers were released, which went on to gather over 3 million views.

TimeScapes was shot in 5K resolution on Red Epic and Canon DLSR cameras, edited in 4K in Adobe Premiere and After Effects, and graded at 16-bit 4K at Light Iron Hollywood on a Quantel Pablo system, by colorist Ian Vertovec (“Girl with the Dragon Tattoo”,“Social Network”).


General
ID                             : 1 (0x1)
Complete name                  : 00000.m2ts
Format                         : BDAV
Format/Info                    : Blu-ray Video
File size                      : 12.5 GiB
Duration                       : 48mn 37s
Overall bit rate mode          : Variable
Overall bit rate               : 36.9 Mbps
Maximum Overall bit rate       : 35.5 Mbps

Video
ID                             : 4113 (0x1011)
Menu ID                        : 1 (0x1)
Format                         : AVC
Format/Info                    : Advanced Video Codec
Format profile                 : High@L4.1
Format settings, CABAC         : Yes
Format settings, ReFrames      : 3 frames
Codec ID                       : 27
Duration                       : 48mn 21s
Bit rate mode                  : Constant
Bit rate                       : 35.0 Mbps
Width                          : 1 920 pixels
Height                         : 1 080 pixels
Display aspect ratio           : 16:9
Frame rate                     : 23.976 fps
Standard                       : NTSC
Color space                    : YUV
Chroma subsampling             : 4:2:0
Bit depth                      : 8 bits
Scan type                      : Progressive
Bits/(Pixel*Frame)             : 0.704
Stream size                    : 11.8 GiB (94%)
Color primaries                : BT.709
Transfer characteristics       : BT.709
Matrix coefficients            : BT.709

Audio
ID                             : 4352 (0x1100)
Menu ID                        : 1 (0x1)
Format                         : AC-3
Format/Info                    : Audio Coding 3
Mode extension                 : CM (complete main)
Format settings, Endianness    : Big
Codec ID                       : 129
Duration                       : 48mn 37s
Bit rate mode                  : Constant
Bit rate                       : 448 Kbps
Channel(s)                     : 6 channels
Channel positions              : Front: L C R, Side: L R, LFE
Sampling rate                  : 48.0 KHz
Bit depth                      : 16 bits
Compression mode               : Lossy
Stream size                    : 156 MiB (1%)
Language                       : English
  评论这张
 
阅读(122)| 评论(0)
推荐 转载

历史上的今天

在LOFTER的更多文章

评论

<#--最新日志,群博日志--> <#--推荐日志--> <#--引用记录--> <#--博主推荐--> <#--随机阅读--> <#--首页推荐--> <#--历史上的今天--> <#--被推荐日志--> <#--上一篇,下一篇--> <#-- 热度 --> <#-- 网易新闻广告 --> <#--右边模块结构--> <#--评论模块结构--> <#--引用模块结构--> <#--博主发起的投票-->
 
 
 
 
 
 
 
 
 
 
 
 
 
 

页脚

网易公司版权所有 ©1997-2017