注册 登录  
 加关注
   显示下一条  |  关闭
温馨提示!由于新浪微博认证机制调整,您的新浪微博帐号绑定已过期,请重新绑定!立即重新绑定新浪微博》  |  关闭

逆风飞翔的鸟

追逐风中散落的默契~

 
 
 

日志

 
 
关于我

曾经迷惑于一份距离 曾经感动于一个传说 …… 在仆仆风中 我伸手 抓住你我的缘分 …… “傻傻”的你 能闻到风中 你我的默契吗?!

网易考拉推荐

【亚洲】SDU.Sex.Duties.Unit.2013.飞虎出征  

2014-03-14 09:14:10|  分类: 亚洲 |  标签: |举报 |字号 订阅

  下载LOFTER 我的照片书  |
【亚洲】SDU.Sex.Duties.Unit.2013.飞虎出征 - 歸鴻 - 逆风飞翔的鸟
◎片  名 飞虎出征
◎译  名 SDU: Sex Duties Unit
◎年  代 2013
◎国  家 中国香港
◎类  别 喜剧
◎语  言 粤语/国语
◎上映日期 2013-07-25 (香港)
◎IMDB链接  http://www.imdb.com/title/tt3044248/
◎片  长 94分钟
◎导  演 麦咏麟
◎主  演 余文乐
      杜汶泽
      邹凯光
      曾国祥
      刘江
      雷宇扬
      邵音音
      林兆霞
      王敏德
      詹瑞文
      陈静
      林雪
      许绍雄
      司徒慧焯
      贾晓晨
      秦煌
      卢惠光
      欧锦棠
      郑敬基


◎简  介

  四名飞虎队员各自面对的爱情、家庭、工作难题,想去召妓释放一下郁闷,但又不敢在香港放肆,最后决定偷渡去澳门鬼混。

  飞虎队是香港警方针对严重罪案,专门成立的精英部队。作为世界最优秀的机动部队之一,没有任何一次恐怖活动能躲避过它的制裁。

  按照惯例,飞虎队会定期派遣部分成员,参加国际军事训练演习。然而,因为一次失败落选,其所属B队组员小强、阿富、虾米、家豪却因不满与妒忌,自行组织了一场更加疯狂代号「淫战」的秘密行动。他们隐藏真实身份,买通地下管道,从香港辗转来到澳门;至于「斩首目标」,也从刑事罪犯转移到结伙嫖娼。过程中,在队长小强的带领下,四人在豪乳与美腿之间,展开一番惊天的「爱情动作大战」。

  原本进展顺利的计画,因为澳门司警的「扫黄行动」逐渐演变成一场闹剧。众人身为警员,反遭牢狱之灾;利用绝技逃生,却被全面通缉;孤注一掷之下,竟又与贼同船。几经斗智斗勇,众人不仅了解到彼此的心结,更阴差阳错的成为缉拿悍匪「贼王滔」的关键。而每名组员也在这场建队历史上,绝无仅有的行动中,重新认识了自己,领悟到团队精神之重要。

◎幕后制作

  彭浩翔继《志明与春娇》、《低俗喜剧》后再次「出征」,把他的短篇小说《特别任务连》搬上大银幕,《飞虎出征》由麦咏麟执导,杜汶泽、余文乐、邹凯光和曾国祥扮演四名雄风飞虎队员,到澳门寻欢与陈静(Dada)、邵音音、林兆霞、卢惠光、雷宇扬等引发连场疯狂趣事,这次不为人知的越境「扫黄」大作战再次在香港掀起地道的低俗文化热潮。


General
ID                             : 1 (0x1)
Complete name                  : 00000.m2ts
Format                         : BDAV
Format/Info                    : Blu-ray Video
File size                      : 23.1 GiB
Duration                       : 1h 36mn
Overall bit rate mode          : Variable
Overall bit rate               : 34.5 Mbps
Maximum Overall bit rate       : 35.5 Mbps

Video
ID                             : 4113 (0x1011)
Menu ID                        : 1 (0x1)
Format                         : AVC
Format/Info                    : Advanced Video Codec
Format profile                 : High@L4.1
Format settings, CABAC         : Yes
Format settings, ReFrames      : 4 frames
Codec ID                       : 27
Duration                       : 1h 36mn
Bit rate mode                  : Variable
Maximum bit rate               : 28.0 Mbps
Width                          : 1 920 pixels
Height                         : 1 080 pixels
Display aspect ratio           : 16:9
Frame rate                     : 24.000 fps
Standard                       : NTSC
Color space                    : YUV
Chroma subsampling             : 4:2:0
Bit depth                      : 8 bits
Scan type                      : Progressive
Color primaries                : BT.709
Transfer characteristics       : BT.709
Matrix coefficients            : BT.709

Audio #1
ID                             : 4352 (0x1100)
Menu ID                        : 1 (0x1)
Format                         : DTS
Format/Info                    : Digital Theater Systems
Format profile                 : MA / Core
Mode                           : 16
Format settings, Endianness    : Big
Muxing mode                    : Stream extension
Codec ID                       : 134
Duration                       : 1h 36mn
Bit rate mode                  : Variable
Bit rate                       : Unknown / 1 509 Kbps
Channel(s)                     : 8 channels / 6 channels
Channel positions              : Front: L C R, Side: L R, Back: L R, LFE / Front: L C R, Side: L R, LFE
Sampling rate                  : 48.0 KHz
Bit depth                      : 16 bits
Compression mode               : Lossless / Lossy
Language                       : Chinese

Audio #2
ID                             : 4353 (0x1101)
Menu ID                        : 1 (0x1)
Format                         : TrueHD / AC-3
Mode extension                 : CM (complete main)
Format settings, Endianness    : Big
Muxing mode                    : Stream extension
Codec ID                       : 131
Duration                       : 1h 36mn
Bit rate mode                  : Variable / Constant
Bit rate                       : 640 Kbps
Maximum bit rate               : 5 514 Kbps
Channel(s)                     : 8 channels / 6 channels
Channel positions              : Front: L C R, Side: L R, Back: L R, LFE / Front: L C R, Side: L R, LFE
Sampling rate                  : 48.0 KHz
Bit depth                      : 16 bits
Stream size                    : 440 MiB (2%)
Language                       : Chinese

Audio #3
ID                             : 4354 (0x1102)
Menu ID                        : 1 (0x1)
Format                         : AC-3
Format/Info                    : Audio Coding 3
Mode extension                 : CM (complete main)
Format settings, Endianness    : Big
Codec ID                       : 129
Duration                       : 1h 36mn
Bit rate mode                  : Constant
Bit rate                       : 384 Kbps
Channel(s)                     : 2 channels
Channel positions              : Front: L R
Sampling rate                  : 48.0 KHz
Bit depth                      : 16 bits
Compression mode               : Lossy
Stream size                    : 264 MiB (1%)
Language                       : Chinese

Text #1
ID                             : 4608 (0x1200)
Menu ID                        : 1 (0x1)
Format                         : PGS
Codec ID                       : 144
Language                       : Chinese

Text #2
ID                             : 4609 (0x1201)
Menu ID                        : 1 (0x1)
Format                         : PGS
Codec ID                       : 144
Language                       : Chinese

Text #3
ID                             : 4610 (0x1202)
Menu ID                        : 1 (0x1)
Format                         : PGS
Codec ID                       : 144
Language                       : English
  评论这张
 
阅读(81)| 评论(0)
推荐 转载

历史上的今天

在LOFTER的更多文章

评论

<#--最新日志,群博日志--> <#--推荐日志--> <#--引用记录--> <#--博主推荐--> <#--随机阅读--> <#--首页推荐--> <#--历史上的今天--> <#--被推荐日志--> <#--上一篇,下一篇--> <#-- 热度 --> <#-- 网易新闻广告 --> <#--右边模块结构--> <#--评论模块结构--> <#--引用模块结构--> <#--博主发起的投票-->
 
 
 
 
 
 
 
 
 
 
 
 
 
 

页脚

网易公司版权所有 ©1997-2017