注册 登录  
 加关注
   显示下一条  |  关闭
温馨提示!由于新浪微博认证机制调整,您的新浪微博帐号绑定已过期,请重新绑定!立即重新绑定新浪微博》  |  关闭

逆风飞翔的鸟

追逐风中散落的默契~

 
 
 

日志

 
 
关于我

曾经迷惑于一份距离 曾经感动于一个传说 …… 在仆仆风中 我伸手 抓住你我的缘分 …… “傻傻”的你 能闻到风中 你我的默契吗?!

网易考拉推荐

【亚洲】Z.Storm.2014.反贪风暴  

2014-11-09 18:12:56|  分类: 亚洲 |  标签: |举报 |字号 订阅

  下载LOFTER 我的照片书  |
【亚洲】Z.Storm.2014.反贪风暴 - 歸鴻 - 逆风飞翔的鸟
◎译  名 反贪风暴/Z风云/Z風暴/反贪风暴2014
◎片  名 Z Storm
◎年  代 2014
◎地  区 香港/中国大陆
◎类  别 剧情/动作/犯罪
◎语  言 汉语普通话/粤语
◎上映日期 2014-08-16(中国大陆)/2014-06-19(香港)
◎IMDB链接  http://www.imdb.com/title/tt3469440/
◎片  长 93分钟(中国大陆)/92分钟(香港/台湾)
◎导  演 林德禄 David Lam
◎主  演 古天乐 Louis Koo ... 陆志廉
      林家栋 Ka Tung Lam ... 黄文彬
      陈 静 Dada Chan ... Angel
      卢海鹏 Hoi-Pang Lo ... 罗德永
      曾国祥 Kwok Cheung Tsang ... 廉署調查員
      廖启智 Kai Chi Liu ... 私家偵探
      王敏德 Michael Wong ... 胡志勇
      张松枝Chung-chi Cheung ... 廉署調查員
      骆应钧 Felix Lok ... 徐怀景
      张兆辉 Siu-Fai Cheung ... 副廉政專員
      盛君 Jun Sheng ... 廉政公署調查員
      欧锦棠 Stephen Au ... 任安達
      姜皓文 Patrick Keung ... 商業罪案科探員


◎简  介

  一日,眼部受伤的女人突然出现在廉政公署总部,扬言要控告商业罪案调查科警司黄文彬(林家栋 饰)贪污,廉政公署执行处首席调查主任陆志廉(古天乐 饰)与队员接手调查,在追查过程中,陆志廉发现事情并不简单,因为身为警司的黄文彬在执行职务时,不止没有阻止罪案发生,更利用职权参与犯罪。

  正当调查渐渐有头绪时,重要证人一个一个被杀,包括罗德永(卢海鹏 饰),所有线索以及证据亦告失去,但有勇有谋的陆志廉并未放弃,随着神秘少女Angel(陈静 饰)的出现,他发现律师胡志勇(王敏德 饰)与“关怀基金”主席徐怀景(骆应钧 饰)有不可告人的秘密。

  陆志廉今次将要面对一个庞大的贪污集团:当中包括了退休高官、警队高层、商界富豪、资深律师、会计师等,事件更牵涉到香港政府用作扶贫的150亿“关怀基金”……

◎幕后揭秘

      《反贪风暴》依据港岛真实重大贪腐案件改编。


General
ID                             : 1 (0x1)
Complete name                  : 00000.m2ts
Format                         : BDAV
Format/Info                    : Blu-ray Video
File size                      : 21.3 GiB
Duration                       : 1h 31mn
Overall bit rate mode          : Variable
Overall bit rate               : 33.2 Mbps
Maximum Overall bit rate       : 35.5 Mbps

Video
ID                             : 4113 (0x1011)
Menu ID                        : 1 (0x1)
Format                         : AVC
Format/Info                    : Advanced Video Codec
Format profile                 : High@L4.1
Format settings, CABAC         : Yes
Format settings, ReFrames      : 4 frames
Codec ID                       : 27
Duration                       : 1h 31mn
Bit rate mode                  : Variable
Bit rate                       : 30.6 Mbps
Maximum bit rate               : 33.0 Mbps
Width                          : 1 920 pixels
Height                         : 1 080 pixels
Display aspect ratio           : 16:9
Frame rate                     : 24.000 fps
Standard                       : NTSC
Color space                    : YUV
Chroma subsampling             : 4:2:0
Bit depth                      : 8 bits
Scan type                      : Progressive
Bits/(Pixel*Frame)             : 0.614
Stream size                    : 19.6 GiB (92%)
Color primaries                : BT.709
Transfer characteristics       : BT.709
Matrix coefficients            : BT.709

Audio #1
ID                             : 4352 (0x1100)
Menu ID                        : 1 (0x1)
Format                         : TrueHD / AC-3
Mode extension                 : CM (complete main)
Format settings, Endianness    : Big
Muxing mode                    : Stream extension
Codec ID                       : 131
Duration                       : 1h 31mn
Bit rate mode                  : Variable / Constant
Bit rate                       : 640 Kbps
Maximum bit rate               : 5 388 Kbps
Channel(s)                     : 6 channels
Channel positions              : Front: L C R, Side: L R, LFE
Sampling rate                  : 96.0 KHz / 48.0 KHz
Bit depth                      : 16 bits
Stream size                    : 420 MiB (2%)
Language                       : Chinese

Audio #2
ID                             : 4353 (0x1101)
Menu ID                        : 1 (0x1)
Format                         : TrueHD / AC-3
Mode extension                 : CM (complete main)
Format settings, Endianness    : Big
Muxing mode                    : Stream extension
Codec ID                       : 131
Duration                       : 1h 31mn
Bit rate mode                  : Variable / Constant
Bit rate                       : 640 Kbps
Maximum bit rate               : 5 376 Kbps
Channel(s)                     : 6 channels
Channel positions              : Front: L C R, Side: L R, LFE
Sampling rate                  : 96.0 KHz / 48.0 KHz
Bit depth                      : 16 bits
Stream size                    : 420 MiB (2%)
Language                       : Chinese

Text #1
ID                             : 4608 (0x1200)
Menu ID                        : 1 (0x1)
Format                         : PGS
Codec ID                       : 144
Language                       : Chinese

Text #2
ID                             : 4609 (0x1201)
Menu ID                        : 1 (0x1)
Format                         : PGS
Codec ID                       : 144
Language                       : Chinese

Text #3
ID                             : 4610 (0x1202)
Menu ID                        : 1 (0x1)
Format                         : PGS
Codec ID                       : 144
Language                       : Chinese

Text #4
ID                             : 4611 (0x1203)
Menu ID                        : 1 (0x1)
Format                         : PGS
Codec ID                       : 144
Language                       : Chinese

Text #5
ID                             : 4612 (0x1204)
Menu ID                        : 1 (0x1)
Format                         : PGS
Codec ID                       : 144
Language                       : English

Text #6
ID                             : 4613 (0x1205)
Menu ID                        : 1 (0x1)
Format                         : PGS
Codec ID                       : 144
Language                       : English
  评论这张
 
阅读(68)| 评论(0)
推荐 转载

历史上的今天

在LOFTER的更多文章

评论

<#--最新日志,群博日志--> <#--推荐日志--> <#--引用记录--> <#--博主推荐--> <#--随机阅读--> <#--首页推荐--> <#--历史上的今天--> <#--被推荐日志--> <#--上一篇,下一篇--> <#-- 热度 --> <#-- 网易新闻广告 --> <#--右边模块结构--> <#--评论模块结构--> <#--引用模块结构--> <#--博主发起的投票-->
 
 
 
 
 
 
 
 
 
 
 
 
 
 

页脚

网易公司版权所有 ©1997-2017