注册 登录  
 加关注
   显示下一条  |  关闭
温馨提示!由于新浪微博认证机制调整,您的新浪微博帐号绑定已过期,请重新绑定!立即重新绑定新浪微博》  |  关闭

逆风飞翔的鸟

追逐风中散落的默契~

 
 
 

日志

 
 
关于我

曾经迷惑于一份距离 曾经感动于一个传说 …… 在仆仆风中 我伸手 抓住你我的缘分 …… “傻傻”的你 能闻到风中 你我的默契吗?!

网易考拉推荐

【动作】The.Iceman.2012.冰人  

2014-11-29 17:54:58|  分类: 动作 |  标签: |举报 |字号 订阅

  下载LOFTER 我的照片书  |
【动作】The.Iceman.2012.冰人 - 歸鴻 - 逆风飞翔的鸟
◎译  名 冰人/送冰的人/急冻杀手(台)
◎片  名 The Iceman
◎年  代 2012
◎国  家 美国
◎类  别 传记/犯罪/剧情/惊悚
◎语  言 英语
◎IMDB链接  http://www.imdb.com/title/tt1491044/
◎片  长 1h 45mn
◎导  演 阿里尔·沃罗曼 Ariel Vromen
◎主  演 迈克尔·珊农 Michael Shannon ....Richard Kuklinski
      薇诺娜·瑞德 Winona Ryder ....Deborah Kuklinski
      克里斯·埃文斯 Chris Evans ....Robert Pronge
      雷·利奥塔 Ray Liotta ....Roy Demeo
      詹姆斯·弗兰科 James Franco ....Marty Freeman
      大卫·休默 David Schwimmer ....Josh Rosenthal
      艾琳·库明斯 Erin Cummings ....Ellen
      维罗妮卡·罗萨蒂 Weronika Rosati ....Livi
      瑞恩·奥南 Ryan O‘Nan ....Terry Franzo
      罗伯特·戴维 Robert Davi ....Leo Marks
      克里斯蒂娜·坎贝尔 Christa Campbell ....Adele
      Garrett Kruithof ....Stanley Kuklinski
      McKaley Miller ....Anabel Kuklinski
      Jay Giannone ....Domenick Provenzano
      丹尼·A·阿贝克恺撒 Danny A. Abeckaser ....Dino Lapron
      林赛·克里夫特 Lindsay Clift ....Mickey‘s girl


◎简  介

  影片讲述一名外号为“冰人”的职业杀手,他喜欢将受害人的尸体冷冻成冰以掩盖作案时间,于此同时他却在自己家人和朋友面前扮演慈父仁夫角色


General
ID                             : 1 (0x1)
Complete name                  : 00000.m2ts
Format                         : BDAV
Format/Info                    : Blu-ray Video
File size                      : 17.7 GiB
Duration                       : 1h 45mn
Overall bit rate mode          : Variable
Overall bit rate               : 24.0 Mbps
Maximum Overall bit rate       : 35.5 Mbps

Video
ID                             : 4113 (0x1011)
Menu ID                        : 1 (0x1)
Format                         : AVC
Format/Info                    : Advanced Video Codec
Format profile                 : High@L4.1
Format settings, CABAC         : Yes
Format settings, ReFrames      : 2 frames
Codec ID                       : 27
Duration                       : 1h 45mn
Bit rate mode                  : Variable
Bit rate                       : 22.4 Mbps
Width                          : 1 920 pixels
Height                         : 1 080 pixels
Display aspect ratio           : 16:9
Frame rate                     : 23.976 fps
Color space                    : YUV
Chroma subsampling             : 4:2:0
Bit depth                      : 8 bits
Scan type                      : Progressive
Bits/(Pixel*Frame)             : 0.451
Stream size                    : 16.5 GiB (93%)

Audio
ID                             : 4352 (0x1100)
Menu ID                        : 1 (0x1)
Format                         : TrueHD / AC-3
Mode extension                 : CM (complete main)
Format settings, Endianness    : Big
Muxing mode                    : Stream extension
Codec ID                       : 131
Duration                       : 1h 45mn
Bit rate mode                  : Variable / Constant
Bit rate                       : 640 Kbps
Maximum bit rate               : 2 985 Kbps
Channel(s)                     : 6 channels
Channel positions              : Front: L C R, Side: L R, LFE
Sampling rate                  : 48.0 KHz
Bit depth                      : 16 bits
Stream size                    : 483 MiB (3%)
Language                       : English

Text #1
ID                             : 4608 (0x1200)
Menu ID                        : 1 (0x1)
Format                         : PGS
Codec ID                       : 144
Language                       : Chinese

Text #2
ID                             : 4609 (0x1201)
Menu ID                        : 1 (0x1)
Format                         : PGS
Codec ID                       : 144
Language                       : Chinese

Text #3
ID                             : 4610 (0x1202)
Menu ID                        : 1 (0x1)
Format                         : PGS
Codec ID                       : 144
Delay relative to video        : 22s 22ms
Language                       : English

Text #4
ID                             : 4611 (0x1203)
Menu ID                        : 1 (0x1)
Format                         : PGS
Codec ID                       : 144
Language                       : Spanish
  评论这张
 
阅读(172)| 评论(0)
推荐 转载

历史上的今天

在LOFTER的更多文章

评论

<#--最新日志,群博日志--> <#--推荐日志--> <#--引用记录--> <#--博主推荐--> <#--随机阅读--> <#--首页推荐--> <#--历史上的今天--> <#--被推荐日志--> <#--上一篇,下一篇--> <#-- 热度 --> <#-- 网易新闻广告 --> <#--右边模块结构--> <#--评论模块结构--> <#--引用模块结构--> <#--博主发起的投票-->
 
 
 
 
 
 
 
 
 
 
 
 
 
 

页脚

网易公司版权所有 ©1997-2017