注册 登录  
 加关注
   显示下一条  |  关闭
温馨提示!由于新浪微博认证机制调整,您的新浪微博帐号绑定已过期,请重新绑定!立即重新绑定新浪微博》  |  关闭

逆风飞翔的鸟

追逐风中散落的默契~

 
 
 

日志

 
 
关于我

曾经迷惑于一份距离 曾经感动于一个传说 …… 在仆仆风中 我伸手 抓住你我的缘分 …… “傻傻”的你 能闻到风中 你我的默契吗?!

网易考拉推荐
GACHA精选

【幻想】Eraserhead.1977.橡皮头  

2014-11-29 17:25:11|  分类: 幻想 |  标签: |举报 |字号 订阅

  下载LOFTER 我的照片书  |
【幻想】Eraserhead.1977.橡皮头 - 歸鴻 - 逆风飞翔的鸟
◎译  名 橡皮头
◎片  名 Eraserhead
◎年  代 1977
◎国  家 美国
◎类  别 幻想/恐怖/科幻
◎语  言 英语
◎IMDB链接  http://www.imdb.com/title/tt0074486/
◎片  长 89分钟
◎导  演 大卫·林奇 David Lynch
◎主  演 杰克·南斯 Jack Nance ....Henry Spencer (as John Nance)
      Charlotte Stewart ....Mary X
      Allen Joseph ....Mr. X
      Jeanne Bates ....Mrs. X
      Judith Anna Roberts ....Beautiful Girl Across the Hall
      Laurel Near ....Lady in the Radiator
      V. Phipps-Wilson ....Landlady (long version)
      杰克·菲斯克 Jack Fisk ....Man in the Planet
      Jean Lange ....Grandmother
      Thomas Coulson ....The Boy
      John Monez ....Bum
      Darwin Joston ....Paul
      Neil Moran ....The Boss
      Hal Landon Jr. ....Pencil Machine Operator
      詹妮弗·林奇 Jennifer Chambers Lynch ....Little Girl (as Jennifer Lynch)
      Brad Keeler ....Little Boy
      Peggy Lynch ....Person Digging in the Alley (long version)
      Doddie Keeler ....Person Digging in the Alley (long version)
      Gill Dennis ....Man with Cigar
      Toby Keeler ....Man Fighting
      Raymond Walsh ....Mr. Roundheels


◎简  介 

    本片在形式上描述一名年轻人堕落到婚姻和家庭的过程:拜访女友的家庭、被迫结婚、生出不受欢迎的畸型儿、妻子离家出走、最后受折磨的父亲肢解了自己的骨肉。片中的家庭由一群扭曲的角色组成:霸道的母亲、无能的父亲、植物人似的祖母、笨拙的女儿,全家人仿佛都有患有某种精神病,画面上也渗透出阴暗腐败的气氛。

    这是一个梦魇还是世界末日之后的真实景象?在一个工业小镇上,巨大的机器总是在不停地在运转着,冒着滚滚浓烟,发出轰鸣的噪音,无法从中逃脱。 亨利·斯班瑟就住在小镇上的一栋房子里,像其他人一样,似乎被整个世界所遗弃。电灯闪烁明灭着,亨利唯一的乐趣就是听和看水箱里的女人唱关于在天堂里找到快乐的歌。亨利有一个女朋友叫玛莉·X,她经常会突发痉挛。玛莉给亨利生了一个孩子,那是一个可怕的怪胎。然后玛莉也离家出走,受尽这个可怕的怪物的折磨的亨利最终选择了肢解掉这个自己所生的恐怖的孩子。

    本片是大卫·林奇一鸣惊人的剧情长片处女作。从这部实验性强烈的怪异影片中可以找到他日后多部作品的创作根源。本片在形式上描述一名年轻人堕落到婚姻和家庭的过程:拜访女友的家庭、被迫结婚、生出不受欢迎的畸型儿、妻子离家出走、最后受折磨的父亲肢解了自己的骨肉。片中的家庭由一群扭曲的角色组成:霸道的母亲、无能的父亲、植物人似的祖母、笨拙的女儿,全家人仿佛都有患有某种精神病,画面上也渗透出阴暗腐败的气氛。假如你喜欢看原创野心强烈的低成本制作,这部影片肯定会令人惊喜。


◎幕后制作

  这是美国著名导演大卫·林奇的第一部剧情长片,但影片已经显示出林奇以后影片中可以作为标示的各种元素和特征。影片讲述了在一个不知名的时空中的一名年轻人堕落到婚姻和家庭的过程:拜访女友的家庭、被迫结婚、生出不受欢迎的畸型儿、妻子离家出走、最后受折磨的父亲肢解了自己的骨肉。这已经显示了林奇以梦的形式组接蒙太奇的方式。影片是对人类现实的隐喻,证明了林奇是最能从现实生活中抽离出梦的因素的电影导演。影片的美工非常出色,尤其是那个怪胎的模型,就连一贯以拍摄特技模型擅长的导演斯坦利·库布里克都一直对这个模型赞叹不已。


General
ID                             : 1 (0x1)
Complete name                  : 00000.m2ts
Format                         : BDAV
Format/Info                    : Blu-ray Video
File size                      : 17.8 GiB
Duration                       : 1h 29mn
Overall bit rate mode          : Variable
Overall bit rate               : 28.5 Mbps
Maximum Overall bit rate       : 35.5 Mbps

Video
ID                             : 4113 (0x1011)
Menu ID                        : 1 (0x1)
Format                         : AVC
Format/Info                    : Advanced Video Codec
Format profile                 : High@L4.1
Format settings, CABAC         : Yes
Format settings, ReFrames      : 4 frames
Codec ID                       : 27
Duration                       : 1h 29mn
Bit rate mode                  : Variable
Bit rate                       : 25.1 Mbps
Maximum bit rate               : 37.0 Mbps
Width                          : 1 920 pixels
Height                         : 1 080 pixels
Display aspect ratio           : 16:9
Frame rate                     : 23.976 fps
Color space                    : YUV
Chroma subsampling             : 4:2:0
Bit depth                      : 8 bits
Scan type                      : Progressive
Bits/(Pixel*Frame)             : 0.505
Stream size                    : 15.6 GiB (88%)

Audio
ID                             : 4352 (0x1100)
Menu ID                        : 1 (0x1)
Format                         : PCM
Format settings, Endianness    : Big
Format settings, Sign          : Signed
Muxing mode                    : Blu-ray
Codec ID                       : 128
Duration                       : 1h 29mn
Bit rate mode                  : Constant
Bit rate                       : 2 304 Kbps
Channel(s)                     : 2 channels
Channel positions              : Front: L R
Sampling rate                  : 48.0 KHz
Bit depth                      : 24 bits
Stream size                    : 1.44 GiB (8%)

Text #1
ID                             : 4608 (0x1200)
Menu ID                        : 1 (0x1)
Format                         : PGS
Codec ID                       : 144

Text #2
ID                             : 4609 (0x1201)
Menu ID                        : 1 (0x1)
Format                         : PGS
Codec ID                       : 144
Duration                       : 1h 29mn

Text #3
ID                             : 4610 (0x1202)
Menu ID                        : 1 (0x1)
Format                         : PGS
Codec ID                       : 144

Text #4
ID                             : 4611 (0x1203)
Menu ID                        : 1 (0x1)
Format                         : PGS
Codec ID                       : 144
  评论这张
 
阅读(74)| 评论(0)
推荐 转载

历史上的今天

在LOFTER的更多文章

评论

<#--最新日志,群博日志--> <#--推荐日志--> <#--引用记录--> <#--博主推荐--> <#--随机阅读--> <#--首页推荐--> <#--历史上的今天--> <#--被推荐日志--> <#--上一篇,下一篇--> <#-- 热度 --> <#-- 网易新闻广告 --> <#--右边模块结构--> <#--评论模块结构--> <#--引用模块结构--> <#--博主发起的投票-->
 
 
 
 
 
 
 
 
 
 
 
 
 
 

页脚

网易公司版权所有 ©1997-2017