注册 登录  
 加关注
   显示下一条  |  关闭
温馨提示!由于新浪微博认证机制调整,您的新浪微博帐号绑定已过期,请重新绑定!立即重新绑定新浪微博》  |  关闭

逆风飞翔的鸟

追逐风中散落的默契~

 
 
 

日志

 
 
关于我

曾经迷惑于一份距离 曾经感动于一个传说 …… 在仆仆风中 我伸手 抓住你我的缘分 …… “傻傻”的你 能闻到风中 你我的默契吗?!

网易考拉推荐

【亚洲】Golden.Brother.2014.男人不可以穷  

2014-11-29 16:08:10|  分类: 亚洲 |  标签: |举报 |字号 订阅

  下载LOFTER 我的照片书  |
【亚洲】Golden.Brother.2014.男人不可以穷 - 歸鴻 - 逆风飞翔的鸟
◎译  名 男人不可以穷/男人唔可以窮(港)
◎片  名 Golden Brother
◎年  代 2014
◎国  家 香港/中国大陆
◎类  别 剧情
◎语  言 汉语普通话/粤语
◎上映日期 2014-12-24(中国大陆)/2014-09-18(香港)
◎片  长 104 min
◎导  演 钟澍佳 Chung Shu Kai
◎主  演 黄宗泽 Bosco Wong ... 薛可正
      陈伟霆 William Chan ... 薛可勇
      谢天华 Michael Tse ... 周常德
      金刚 Gang Jin ... German
      邓丽欣 Stephy Tang ... 张以娜
      赵荣 Rong Zhao ... 梁安儿
      陈嘉桓 Rose Chan ... 姚静悠
      洪天明 Timmy Hung ... 赵文栽
      龚慈恩 Mimi Kung ... 薛母
      李灿森 Sam Lee ... 客串
      翟天临 Tianlin Zhai ... 客串
      田启文 Kai Man Tin ... 客串
      黄智贤 Chi-yin Wong ... 客串
      王祖蓝 Cho-lam Wong ... 客串
      姜皓文 Patrick Keung ... 客串
      林敏骢 Man Chung Lam ... 客串


◎简  介

  向安于现状的白领青年薛可正(黄宗泽 饰),被陷害导致失业,同时拍拖多年的女友以娜(邓丽欣 饰)提出分手,一夜间顿时成为双失青年。
  在儿时朋友栽(洪天明 饰)和刚刚出狱的弟弟可勇(陈伟霆 饰)介绍下,误打误撞进入一金融公司成为黄金经纪。兄弟二人见识了这一行的人生百态和金钱的丑恶;可勇在公司更认识了后来成为太太的姚静悠YoYo(陈嘉桓 饰);正当薜可正事业刚刚有起色,家中父亲因癌症去世,兄弟二人大受打击。 薜可正拒绝父亲的好友帮助,离开金融行业转为经营卖烤串的小摊档。在创业初期,薜可正认识了刚烈女子安儿(赵荣 饰)。因为看不过眼安儿的儿子思倪(陈学文 饰)给前夫虐待,毅然帮助安儿和前夫争夺思倪的抚养权。
  与此同时,可勇与YoYo也闹离婚要争夺孩子抚养权,薜可正从一个双失青年,在现实的生活和家庭纠纷下,逐渐成长为一个真正的男人,而可勇及YoYo也在可正及安儿的影响下,开展了人生的另一阶段…


◎幕后花絮

  黄宗泽“本分男”难上进

  片中,黄宗泽饰演了一位因为没有上进心、性格软弱遭上司欺负又被女友痛帅的“本分男”,而陈伟霆饰演的弟弟则是胆大、仗义、敢冒险却不太成熟的鲁莽男孩。黄宗泽表示:“虽然他很冲动、又爱动粗,但是比我成熟,他敢闯,我总是怕太多还胆小,这样的‘本分男’想要上进还是有点难的。”对此,陈伟霆表示:“就因为我们有这么多缺点所有才像生活,我们经历了那么多的挫折和困难之后然而比以前更认真努力生活,这才是生活的精华。如果生下来就很美好,那人生还有什么意思。”

  陈伟霆惊险关头伸出援手

  据悉,两人在片中都经历了一段人生灰暗的低谷,为了赚快钱炒股吃了很多亏,黄宗泽还险些丧命。陈伟霆透露:“赚快钱的人都心急,我们经验少,又不成熟,当然会走上黑路。虽然平日感情很僵硬,但是惊险关头我们都会互相帮助,怎样也是亲兄弟。”黄宗泽也表示:“男人之间的感情就该大气,平时再怎样,危险时候不能不帮助。”电影《男人不可以穷》主要通过几位不同年龄、职业、性格的男人从家庭、事业、感情等多方面的人生经历讲述的每个男人成长过程都会经历的挫折和感悟。


General
ID                             : 1 (0x1)
Complete name                  : 00000.m2ts
Format                         : BDAV
Format/Info                    : Blu-ray Video
File size                      : 21.7 GiB
Duration                       : 1h 43mn
Overall bit rate mode          : Variable
Overall bit rate               : 30.0 Mbps
Maximum Overall bit rate       : 35.5 Mbps

Video
ID                             : 4113 (0x1011)
Menu ID                        : 1 (0x1)
Format                         : AVC
Format/Info                    : Advanced Video Codec
Format profile                 : High@L4.1
Format settings, CABAC         : Yes
Format settings, ReFrames      : 4 frames
Codec ID                       : 27
Duration                       : 1h 43mn
Bit rate mode                  : Variable
Bit rate                       : 27.5 Mbps
Maximum bit rate               : 30.0 Mbps
Width                          : 1 920 pixels
Height                         : 1 080 pixels
Display aspect ratio           : 16:9
Frame rate                     : 24.000 fps
Standard                       : NTSC
Color space                    : YUV
Chroma subsampling             : 4:2:0
Bit depth                      : 8 bits
Scan type                      : Progressive
Bits/(Pixel*Frame)             : 0.552
Stream size                    : 19.9 GiB (92%)
Color primaries                : BT.709
Transfer characteristics       : BT.709
Matrix coefficients            : BT.709

Audio #1
ID                             : 4352 (0x1100)
Menu ID                        : 1 (0x1)
Format                         : TrueHD / AC-3
Mode extension                 : CM (complete main)
Format settings, Endianness    : Big
Muxing mode                    : Stream extension
Codec ID                       : 131
Duration                       : 1h 43mn
Bit rate mode                  : Variable / Constant
Bit rate                       : 640 Kbps
Maximum bit rate               : 3 942 Kbps
Channel(s)                     : 6 channels
Channel positions              : Front: L C R, Side: L R, LFE
Sampling rate                  : 96.0 KHz / 48.0 KHz
Bit depth                      : 16 bits
Stream size                    : 475 MiB (2%)

Audio #2
ID                             : 4353 (0x1101)
Menu ID                        : 1 (0x1)
Format                         : TrueHD / AC-3
Mode extension                 : CM (complete main)
Format settings, Endianness    : Big
Muxing mode                    : Stream extension
Codec ID                       : 131
Duration                       : 1h 43mn
Bit rate mode                  : Variable / Constant
Bit rate                       : 640 Kbps
Maximum bit rate               : 3 978 Kbps
Channel(s)                     : 6 channels
Channel positions              : Front: L C R, Side: L R, LFE
Sampling rate                  : 96.0 KHz / 48.0 KHz
Bit depth                      : 16 bits
Stream size                    : 475 MiB (2%)

Text #1
ID                             : 4608 (0x1200)
Menu ID                        : 1 (0x1)
Format                         : PGS
Codec ID                       : 144

Text #2
ID                             : 4609 (0x1201)
Menu ID                        : 1 (0x1)
Format                         : PGS
Codec ID                       : 144

Text #3
ID                             : 4610 (0x1202)
Menu ID                        : 1 (0x1)
Format                         : PGS
Codec ID                       : 144
  评论这张
 
阅读(86)| 评论(0)
推荐 转载

历史上的今天

评论

<#--最新日志,群博日志--> <#--推荐日志--> <#--引用记录--> <#--博主推荐--> <#--随机阅读--> <#--首页推荐--> <#--历史上的今天--> <#--被推荐日志--> <#--上一篇,下一篇--> <#-- 热度 --> <#-- 网易新闻广告 --> <#--右边模块结构--> <#--评论模块结构--> <#--引用模块结构--> <#--博主发起的投票-->
 
 
 
 
 
 
 
 
 
 
 
 
 
 

页脚

网易公司版权所有 ©1997-2017