注册 登录  
 加关注
   显示下一条  |  关闭
温馨提示!由于新浪微博认证机制调整,您的新浪微博帐号绑定已过期,请重新绑定!立即重新绑定新浪微博》  |  关闭

逆风飞翔的鸟

追逐风中散落的默契~

 
 
 

日志

 
 
关于我

曾经迷惑于一份距离 曾经感动于一个传说 …… 在仆仆风中 我伸手 抓住你我的缘分 …… “傻傻”的你 能闻到风中 你我的默契吗?!

网易考拉推荐

【亚洲】The.Yellow.Handkerchief.of.Happiness.1977.幸福的黄手帕  

2014-11-29 16:49:38|  分类: 亚洲 |  标签: |举报 |字号 订阅

  下载LOFTER 我的照片书  |
【亚洲】The.Yellow.Handkerchief.of.Happiness.1977.幸福的黄手帕 - 歸鴻 - 逆风飞翔的鸟
◎译  名 幸福的黄手帕/The Yellow Handkerchief of Happiness
◎片  名 幸福の黄色いハンカチ
◎年  代 1977
◎国  家 日本
◎类  别 喜剧/剧情
◎语  言 日语
◎IMDB链接  http://www.imdb.com/title/tt0076935/
◎片  长 109分钟
◎导  演 山田洋次 Yoji Yamada
◎演  员 高仓健 Ken Takakura ... Yusaku Shima
            倍赏千惠子 Baishou Chieko ... Mitsue Shima
            武田铁矢 Tetsuya Takeda ... Kinya Hanada
            桃井薰 Kaori Momoi ... Akemi Ogawa
            太宰久雄 Hisao Dazai ... Ryokan Manager
            冈本茉莉 Mari Okamoto ... Ramen Shop Girl
            渥美清 Kiyoshi Atsumi ... Watanabe Kacho
            赤冢真人 Makoto Akatsuka ... Chinpira


◎简  介
  
  煤矿工人勇作(高仓健)失手将一名寻衅滋事的流氓打死后,被判刑入狱,在监狱里,他非常想念自己的妻子光枝(倍赏千惠子),却因害怕耽误她的生活和前途,主动提出离婚,并真心实意地劝她改嫁。

  刑满释放前,勇作给光枝写了一封信,说如果她还没有与他人结婚,仍在等待着他的归去,就在家门前的旗杆上挂上一块黄手帕,假如他看不到黄手帕,会就此远走他乡。归家途中,患得患失的勇作碰到一对驾车出行的年轻情侣(武田铁矢、桃井薰),搭乘他们的车游转了一些地方,之后,他才鼓足勇气回到家乡。


◎幕后制作

    勇作的扮演者高仓健以精湛的演技和深刻的人生体验,成功地塑造出了一个既坚忍不拔又体贴多情的男性形象。他那微蹙的浓眉和深邃忧郁的眼神至今都是女人们心中“永远的痛和永远的爱”。妻子光枝的扮演者倍赏千惠子则把这个善良温淑的女性形象刻划得细腻动人。旗杆上挂满黄手帕的经典画面足以让所有有情之人都高兴得热泪盈眶。另外影片对故事场景的生活化处理和小说式的结构形式都能给人留下优雅舒适的印象。

    影片曾获1977年《电影旬报》十佳奖第一名,并获得编剧、导演、男女演员等五项大奖,在《每日新闻》和日本电影协会组织的评奖中亦被评为优秀影片,并入选日本名片200部。


General
ID                             : 1 (0x1)
Complete name                  : 00000.m2ts
Format                         : BDAV
Format/Info                    : Blu-ray Video
File size                      : 32.5 GiB
Duration                       : 1h 48mn
Overall bit rate mode          : Variable
Overall bit rate               : 42.8 Mbps
Maximum Overall bit rate       : 35.5 Mbps

Video
ID                             : 4113 (0x1011)
Menu ID                        : 1 (0x1)
Format                         : AVC
Format/Info                    : Advanced Video Codec
Format profile                 : High@L4.1
Format settings, CABAC         : Yes
Format settings, ReFrames      : 4 frames
Codec ID                       : 27
Duration                       : 1h 48mn
Bit rate mode                  : Variable
Bit rate                       : 38.6 Mbps
Maximum bit rate               : 40.0 Mbps
Width                          : 1 920 pixels
Height                         : 1 080 pixels
Display aspect ratio           : 16:9
Frame rate                     : 23.976 fps
Color space                    : YUV
Chroma subsampling             : 4:2:0
Bit depth                      : 8 bits
Scan type                      : Progressive
Bits/(Pixel*Frame)             : 0.777
Stream size                    : 29.3 GiB (90%)
Color primaries                : BT.709
Transfer characteristics       : BT.709
Matrix coefficients            : BT.709

Audio #1
ID                             : 4352 (0x1100)
Menu ID                        : 1 (0x1)
Format                         : PCM
Format settings, Endianness    : Big
Format settings, Sign          : Signed
Muxing mode                    : Blu-ray
Codec ID                       : 128
Duration                       : 1h 48mn
Bit rate mode                  : Constant
Bit rate                       : 1 536 Kbps
Channel(s)                     : 2 channels
Channel positions              : Front: L R
Sampling rate                  : 48.0 KHz
Bit depth                      : 16 bits
Stream size                    : 1.17 GiB (4%)

Audio #2
ID                             : 4353 (0x1101)
Menu ID                        : 1 (0x1)
Format                         : DTS
Format/Info                    : Digital Theater Systems
Mode                           : 16
Format settings, Endianness    : Big
Codec ID                       : 130
Duration                       : 1h 48mn
Bit rate mode                  : Constant
Bit rate                       : 768 Kbps
Channel(s)                     : 2 channels
Channel positions              : Front: L R
Sampling rate                  : 48.0 KHz
Bit depth                      : 16 bits
Compression mode               : Lossy
Stream size                    : 597 MiB (2%)

Audio #3
ID                             : 4354 (0x1102)
Menu ID                        : 1 (0x1)
Format                         : AC-3
Format/Info                    : Audio Coding 3
Mode extension                 : CM (complete main)
Format settings, Endianness    : Big
Codec ID                       : 129
Duration                       : 1h 48mn
Bit rate mode                  : Constant
Bit rate                       : 128 Kbps
Channel(s)                     : 2 channels
Channel positions              : Front: L R
Sampling rate                  : 48.0 KHz
Bit depth                      : 16 bits
Compression mode               : Lossy
Stream size                    : 99.5 MiB (0%)

Text #1
ID                             : 4608 (0x1200)
Menu ID                        : 1 (0x1)
Format                         : PGS
Codec ID                       : 144
Delay relative to video        : 12s 12ms

Text #2
ID                             : 4609 (0x1201)
Menu ID                        : 1 (0x1)
Format                         : PGS
Codec ID                       : 144
Delay relative to video        : 12s 12ms

Text #3
ID                             : 4610 (0x1202)
Menu ID                        : 1 (0x1)
Format                         : PGS
Codec ID                       : 144
  评论这张
 
阅读(66)| 评论(0)
推荐 转载

历史上的今天

评论

<#--最新日志,群博日志--> <#--推荐日志--> <#--引用记录--> <#--博主推荐--> <#--随机阅读--> <#--首页推荐--> <#--历史上的今天--> <#--被推荐日志--> <#--上一篇,下一篇--> <#-- 热度 --> <#-- 网易新闻广告 --> <#--右边模块结构--> <#--评论模块结构--> <#--引用模块结构--> <#--博主发起的投票-->
 
 
 
 
 
 
 
 
 
 
 
 
 
 

页脚

网易公司版权所有 ©1997-2017