注册 登录  
 加关注
   显示下一条  |  关闭
温馨提示!由于新浪微博认证机制调整,您的新浪微博帐号绑定已过期,请重新绑定!立即重新绑定新浪微博》  |  关闭

逆风飞翔的鸟

追逐风中散落的默契~

 
 
 

日志

 
 
关于我

曾经迷惑于一份距离 曾经感动于一个传说 …… 在仆仆风中 我伸手 抓住你我的缘分 …… “傻傻”的你 能闻到风中 你我的默契吗?!

网易考拉推荐

【亚洲】Temporary.Family.2014.失恋急让  

2014-11-29 16:33:36|  分类: 亚洲 |  标签: |举报 |字号 订阅

  下载LOFTER 我的照片书  |
【亚洲】Temporary.Family.2014.失恋急让 - 歸鴻 - 逆风飞翔的鸟
◎片  名 失恋急让/临时同居
◎译  名 Temporary Family
◎年  代 2013
◎国  家 中国香港
◎类  别 喜剧
◎语  言 粤语
◎字  幕 中文/英文
◎IMDB链接  http://www.imdb.com/title/tt3830812
◎片  长 100 Mins
◎导  演 卓韵芝
◎主  演 张家辉
      郑秀文
      杨颖
      欧豪
      黄子华
      胡杏儿
      张学友
      王菀之
      姜武
      陈果
      葛民辉
      何穗


◎簡  介

    勤奋努力的地产经纪项少龙(张家辉饰),求婚却因婚房太小而被拒。女友提出要在一年的时间里住上豪宅,对少龙来说简直就是个不可能的任务。每日都苦思赚钱大计的少龙突然遇到一个难得的好机会——一个名为“天下无双”的梦幻豪宅低价放盘。如果自己可以顺利买下再转手,便可一举实现目标。于是他找来四个人和他一起“炒楼”:金凤(郑秀文饰)有一定资产正准备租房的女人;阿黑(Angelababy饰)少龙前妻的女儿;Very(欧豪饰)与少龙同一间地产公司的实习生、富二代。怎料刚刚买下豪宅就遇到政府打压炒楼,楼市惨淡。于是四人都搬进了单位,组成了一个临时家庭,各种矛盾也接踵而来…


General
ID                             : 1 (0x1)
Complete name                  : 00000.m2ts
Format                         : BDAV
Format/Info                    : Blu-ray Video
File size                      : 19.3 GiB
Duration                       : 1h 39mn
Overall bit rate mode          : Variable
Overall bit rate               : 27.8 Mbps
Maximum Overall bit rate       : 35.5 Mbps

Video
ID                             : 4113 (0x1011)
Menu ID                        : 1 (0x1)
Format                         : AVC
Format/Info                    : Advanced Video Codec
Format profile                 : High@L4.1
Format settings, CABAC         : Yes
Format settings, ReFrames      : 4 frames
Codec ID                       : 27
Duration                       : 1h 39mn
Bit rate mode                  : Variable
Bit rate                       : 26.0 Mbps
Maximum bit rate               : 32.0 Mbps
Width                          : 1 920 pixels
Height                         : 1 080 pixels
Display aspect ratio           : 16:9
Frame rate                     : 24.000 fps
Standard                       : NTSC
Color space                    : YUV
Chroma subsampling             : 4:2:0
Bit depth                      : 8 bits
Scan type                      : Progressive
Bits/(Pixel*Frame)             : 0.523
Stream size                    : 18.1 GiB (94%)
Color primaries                : BT.709
Transfer characteristics       : BT.709
Matrix coefficients            : BT.709

Audio
ID                             : 4352 (0x1100)
Menu ID                        : 1 (0x1)
Format                         : TrueHD / AC-3
Mode extension                 : CM (complete main)
Format settings, Endianness    : Big
Muxing mode                    : Stream extension
Codec ID                       : 131
Duration                       : 1h 39mn
Bit rate mode                  : Variable / Constant
Bit rate                       : 640 Kbps
Maximum bit rate               : 4 374 Kbps
Channel(s)                     : 6 channels
Channel positions              : Front: L C R, Side: L R, LFE
Sampling rate                  : 96.0 KHz / 48.0 KHz
Bit depth                      : 16 bits
Stream size                    : 455 MiB (2%)

Text #1
ID                             : 4608 (0x1200)
Menu ID                        : 1 (0x1)
Format                         : PGS
Codec ID                       : 144
Delay relative to video        : 23s 625ms

Text #2
ID                             : 4609 (0x1201)
Menu ID                        : 1 (0x1)
Format                         : PGS
Codec ID                       : 144
Delay relative to video        : 23s 625ms
  评论这张
 
阅读(67)| 评论(0)
推荐 转载

历史上的今天

在LOFTER的更多文章

评论

<#--最新日志,群博日志--> <#--推荐日志--> <#--引用记录--> <#--博主推荐--> <#--随机阅读--> <#--首页推荐--> <#--历史上的今天--> <#--被推荐日志--> <#--上一篇,下一篇--> <#-- 热度 --> <#-- 网易新闻广告 --> <#--右边模块结构--> <#--评论模块结构--> <#--引用模块结构--> <#--博主发起的投票-->
 
 
 
 
 
 
 
 
 
 
 
 
 
 

页脚

网易公司版权所有 ©1997-2017