注册 登录  
 加关注
   显示下一条  |  关闭
温馨提示!由于新浪微博认证机制调整,您的新浪微博帐号绑定已过期,请重新绑定!立即重新绑定新浪微博》  |  关闭

逆风飞翔的鸟

追逐风中散落的默契~

 
 
 

日志

 
 
关于我

曾经迷惑于一份距离 曾经感动于一个传说 …… 在仆仆风中 我伸手 抓住你我的缘分 …… “傻傻”的你 能闻到风中 你我的默契吗?!

网易考拉推荐

【亚洲】Snakes.and.Earrings.2008.蛇形耳环  

2014-11-29 16:30:55|  分类: 亚洲 |  标签: |举报 |字号 订阅

  下载LOFTER 我的照片书  |
【亚洲】Snakes.and.Earrings.2008.蛇形耳环 - 歸鴻 - 逆风飞翔的鸟
◎译  名 Snakes And Earrings
◎片  名 蛇にピアス Hebi ni Piasu
◎年  代 2008
◎国  家 日本
◎类  别 剧情
◎语  言 日语
◎导  演 蜷川幸雄
◎主  演 吉高由里子 / 高良健吾 / 井浦新 / 阿比留优 / SONIM / 市川龟治郎 / 小栗旬 / 唐泽寿明 / 藤原龙也


◎简  介

    正因为有疼痛感,才会觉得自己还活。-----电影《蛇舌》

    在涉谷闲逛的路易是个既没有职业也不进学的19岁女孩。这天,路易在俱乐部碰到了一个改变她单调人生的男人。留着红色莫希干发型、眉毛和嘴唇上穿环打钉的阿马对她说:“你知道蛇舌么?”“那是什么?”阿马伸出了蛇一样顶端一分为二的舌头。路易被仿佛生活在另一个全然不同的世界的阿马迷住了。

    阿马把路易带到了一家气氛诡异的店。店老板阿柴全身都是纹身、满脸都是装饰,打扮比阿马还朋克。他是一个纹身师、还自称是虐待狂。路易非常兴奋,她爱上了身体改造。她在自己的舌头上打洞缀钉,准备一步步变成象阿马一样的蛇舌。她还请阿柴在自己的背上纹上龙和麒麟的图案,龙是阿马背上的纹身,麒麟则是阿柴右臂上的纹身。阿柴开出了和他过一夜的条件,路易接受了。

    路易的龙和麒麟都没有眼睛。她觉得一旦点了睛,它们就会飞走。路易和阿马同居了,但同时又和阿柴保持着关系。和外表不同,阿马有时温柔得近乎软弱,同时还有着疯狂的独占欲。而阿柴正如他所说是个虐待狂,但他不时展现出成熟男人的包容。

    在不断寻找但依然找不到生存意义的日子里,只有两个男人带来的心的痛楚和打洞纹身带来的身体的痛楚给了路易生存的感觉。

    然而,一场暴力事件让三个人的关系迎来了意外的终结……


General
ID                             : 1 (0x1)
Complete name                  : 00000.m2ts
Format                         : BDAV
Format/Info                    : Blu-ray Video
File size                      : 34.2 GiB
Duration                       : 2h 4mn
Overall bit rate mode          : Variable
Overall bit rate               : 39.2 Mbps
Maximum Overall bit rate       : 35.5 Mbps

Video
ID                             : 4113 (0x1011)
Menu ID                        : 1 (0x1)
Format                         : AVC
Format/Info                    : Advanced Video Codec
Format profile                 : High@L4.1
Format settings, CABAC         : Yes
Format settings, ReFrames      : 4 frames
Codec ID                       : 27
Duration                       : 2h 4mn
Bit rate mode                  : Variable
Bit rate                       : 35.3 Mbps
Maximum bit rate               : 40.0 Mbps
Width                          : 1 920 pixels
Height                         : 1 080 pixels
Display aspect ratio           : 16:9
Frame rate                     : 23.976 fps
Color space                    : YUV
Chroma subsampling             : 4:2:0
Bit depth                      : 8 bits
Scan type                      : Progressive
Bits/(Pixel*Frame)             : 0.710
Stream size                    : 30.8 GiB (90%)

Audio
ID                             : 4352 (0x1100)
Menu ID                        : 1 (0x1)
Format                         : PCM
Format settings, Endianness    : Big
Format settings, Sign          : Signed
Muxing mode                    : Blu-ray
Codec ID                       : 128
Duration                       : 2h 4mn
Bit rate mode                  : Constant
Bit rate                       : 2 304 Kbps
Channel(s)                     : 2 channels
Channel positions              : Front: L R
Sampling rate                  : 48.0 KHz
Bit depth                      : 24 bits
Stream size                    : 2.01 GiB (6%)

Text #1
ID                             : 4608 (0x1200)
Menu ID                        : 1 (0x1)
Format                         : PGS
Codec ID                       : 144

Text #2
ID                             : 4609 (0x1201)
Menu ID                        : 1 (0x1)
Format                         : PGS
Codec ID                       : 144

Text #3
ID                             : 4610 (0x1202)
Menu ID                        : 1 (0x1)
Format                         : PGS
Codec ID                       : 144
Duration                       : 2h 4mn
Delay relative to video        : 18s 268ms

Text #4
ID                             : 4611 (0x1203)
Menu ID                        : 1 (0x1)
Format                         : PGS
Codec ID                       : 144
  评论这张
 
阅读(116)| 评论(0)
推荐 转载

历史上的今天

在LOFTER的更多文章

评论

<#--最新日志,群博日志--> <#--推荐日志--> <#--引用记录--> <#--博主推荐--> <#--随机阅读--> <#--首页推荐--> <#--历史上的今天--> <#--被推荐日志--> <#--上一篇,下一篇--> <#-- 热度 --> <#-- 网易新闻广告 --> <#--右边模块结构--> <#--评论模块结构--> <#--引用模块结构--> <#--博主发起的投票-->
 
 
 
 
 
 
 
 
 
 
 
 
 
 

页脚

网易公司版权所有 ©1997-2017