注册 登录  
 加关注
   显示下一条  |  关闭
温馨提示!由于新浪微博认证机制调整,您的新浪微博帐号绑定已过期,请重新绑定!立即重新绑定新浪微博》  |  关闭

逆风飞翔的鸟

追逐风中散落的默契~

 
 
 

日志

 
 
关于我

曾经迷惑于一份距离 曾经感动于一个传说 …… 在仆仆风中 我伸手 抓住你我的缘分 …… “傻傻”的你 能闻到风中 你我的默契吗?!

网易考拉推荐

【剧情】Ali:Fear.Eats.the.Soul.1974.恐惧吞噬心灵  

2014-11-29 15:08:14|  分类: 剧情 |  标签: |举报 |字号 订阅

  下载LOFTER 我的照片书  |
【剧情】Ali:Fear.Eats.the.Soul.1974.恐惧吞噬心灵 - 歸鴻 - 逆风飞翔的鸟
◎译  名 恐惧吞噬心灵 / 恐惧蚀人生
◎片  名 Ali: Fear Eats the Soul / Angst essen Seele auf
◎年  代 1974
◎国  家 西德
◎类  别 剧情 / 爱情
◎语  言 德语
◎IMDB链接  http://www.imdb.com/title/tt0071141/
◎片  长 93分钟
◎导  演  赖纳·维尔纳·法斯宾德
◎编    剧  赖纳·维尔纳·法斯宾德
◎主  演 布里奇特·米拉 / 伊尔姆·海尔曼 / 哈克·波姆 / 赖纳·维尔纳·法斯宾德


◎简  介

  这是一部叙述普通人生活的影片,是一个爱情故事,由两个不同国籍、不同年龄的孤独男女谱写而成。一场突如其来的大雨使年近60的寡妇埃米与来自摩洛哥的汽修工人、30来岁的阿里在酒吧认识。两人互诉苦闷、相互同情,在众人歧视的目光下结成夫妇。随着时间的推移,外界因素的改变使他们之间的内在差异凸现出来,矛盾也随之出现,俩人的感情越来越疏远。

◎幕后制作

  这个故事是对社会的一种批判,揭示了人物的身份、年龄的差异、社会的歧视与误解、命运的捉弄是造成悲剧的本源。导演对德国各阶层的关注、对各类问题的洞察,其视野和深度不同凡响。题材取自于法斯宾德心仪的好莱坞前辈道格拉斯·瑟克50年代名作《天堂可以等待》,同一题材的重拍版还有朱莉安·摩尔那部《远离天堂》。

◎获奖记录

   戛纳电影节(1974;第27届) 获奖:2 提名:1
获奖
   ·天主教人道精神奖赖纳·维尔纳·法斯宾德 Rainer Werner Fassbinder  
   ·主竞赛单元-主竞赛费比西奖赖纳·维尔纳·法斯宾德 Rainer Werner Fassbinder  
提名
   ·主竞赛单元-金棕榈奖赖纳·维尔纳·法斯宾德 Rainer Werner Fassbinder  


General
ID                             : 1 (0x1)
Complete name                  : 00000.m2ts
Format                         : BDAV
Format/Info                    : Blu-ray Video
File size                      : 25.6 GiB
Duration                       : 1h 33mn
Overall bit rate mode          : Variable
Overall bit rate               : 39.2 Mbps
Maximum Overall bit rate       : 35.5 Mbps

Video
ID                             : 4113 (0x1011)
Menu ID                        : 1 (0x1)
Format                         : AVC
Format/Info                    : Advanced Video Codec
Format profile                 : High@L4.1
Format settings, CABAC         : Yes
Format settings, ReFrames      : 4 frames
Codec ID                       : 27
Duration                       : 1h 33mn
Bit rate mode                  : Variable
Bit rate                       : 35.3 Mbps
Maximum bit rate               : 37.0 Mbps
Width                          : 1 920 pixels
Height                         : 1 080 pixels
Display aspect ratio           : 16:9
Frame rate                     : 23.976 fps
Color space                    : YUV
Chroma subsampling             : 4:2:0
Bit depth                      : 8 bits
Scan type                      : Progressive
Bits/(Pixel*Frame)             : 0.711
Stream size                    : 23.0 GiB (90%)

Audio
ID                             : 4352 (0x1100)
Menu ID                        : 1 (0x1)
Format                         : PCM
Format settings, Endianness    : Big
Format settings, Sign          : Signed
Muxing mode                    : Blu-ray
Codec ID                       : 128
Duration                       : 1h 33mn
Bit rate mode                  : Constant
Bit rate                       : 1 152 Kbps
Encoded bit rate               : 2 304 Kbps
Channel(s)                     : 1 channel
Channel positions              : Front: C
Sampling rate                  : 48.0 KHz
Bit depth                      : 24 bits
Stream size                    : 769 MiB (3%)

Text #1
ID                             : 4608 (0x1200)
Menu ID                        : 1 (0x1)
Format                         : PGS
Codec ID                       : 144

Text #2
ID                             : 4609 (0x1201)
Menu ID                        : 1 (0x1)
Format                         : PGS
Codec ID                       : 144

Text #3
ID                             : 4610 (0x1202)
Menu ID                        : 1 (0x1)
Format                         : PGS
Codec ID                       : 144

Text #4
ID                             : 4611 (0x1203)
Menu ID                        : 1 (0x1)
Format                         : PGS
Codec ID                       : 144
  评论这张
 
阅读(67)| 评论(0)
推荐 转载

历史上的今天

在LOFTER的更多文章

评论

<#--最新日志,群博日志--> <#--推荐日志--> <#--引用记录--> <#--博主推荐--> <#--随机阅读--> <#--首页推荐--> <#--历史上的今天--> <#--被推荐日志--> <#--上一篇,下一篇--> <#-- 热度 --> <#-- 网易新闻广告 --> <#--右边模块结构--> <#--评论模块结构--> <#--引用模块结构--> <#--博主发起的投票-->
 
 
 
 
 
 
 
 
 
 
 
 
 
 

页脚

网易公司版权所有 ©1997-2017