注册 登录  
 加关注
   显示下一条  |  关闭
温馨提示!由于新浪微博认证机制调整,您的新浪微博帐号绑定已过期,请重新绑定!立即重新绑定新浪微博》  |  关闭

逆风飞翔的鸟

追逐风中散落的默契~

 
 
 

日志

 
 
关于我

曾经迷惑于一份距离 曾经感动于一个传说 …… 在仆仆风中 我伸手 抓住你我的缘分 …… “傻傻”的你 能闻到风中 你我的默契吗?!

网易考拉推荐

【亚洲】Crows.Explode.2014.热血高校3  

2014-11-29 15:28:02|  分类: 亚洲 |  标签: |举报 |字号 订阅

  下载LOFTER 我的照片书  |
【亚洲】Crows.Explode.2014.热血高校3 - 歸鴻 - 逆风飞翔的鸟
◎译  名 热血高校3
◎片  名 クローズEXPLODE/Crows Explode
◎年  代 2014
◎地  区 日本
◎类  别 动作
◎语  言 日语
◎导  演 豊田利晃
◎主  演 东出昌大
      早乙女太一
      胜地凉
      矢部享佑
      永山绚斗
      柳乐优弥
      岩田刚典
      Elly
      Kenzo


◎简  介

    故事发生在《热血高校2》一个月之后,谱写了最强传奇的泷谷源治、芹泽多摩雄等人相继毕业,不良少年大本营铃兰高中迎来了新的学年。然而和平永远和这所高中无关,铃兰最顶点的王者宝座依然空缺,新一届三年级们蠢蠢欲动,朝着顶点做最后的冲击。

    在这群人中,强罗彻(柳乐悠弥 饰)的名字赫然在列,他也是最接近铃兰顶点的可怕男人。除此之外,将强罗彻视为最大竞争对手的高木哲次(Kenzo 饰)、实力和头脑俱佳的小岐须健一(胜地凉 饰)、由七森工业转来的恶狼独行男山下甲兵(Elly 饰)等都是这一届叱咤风云的人物,当然更少不了保持不败纪录的传奇人物林田惠(深水元基 饰)。

    当铃兰战火一触即发之际,两个男人的加入无疑让战局愈加波谲云诡,难以预测。他们是以一人之力干掉焚八商业四天王而被流放到铃兰的镝木旋风雄(东出昌大 饰),以及生性好斗、酷爱惹是生非的一年级生加贺美辽平(早乙女太一 饰)。喜好自由的旋风雄虽然对王者之争没有任何兴趣,但他和加贺美从一对视的刹那间便将对方锁定为自己的宿敌。所有强者齐齐上阵,铃兰史上最为凶残的内部战争拉开帷幕。

    战火还远远不止于此,铃兰之外的世界同样狼烟四起。统领黑咲工业高中的柴田浩树(岩田刚典 饰)面临恐怖复仇者的挑战。曾经和他对决败北的黑咲二号人物藤原一(永山绚斗 饰)走出看守所,与暴走族ODA的老大织田政志(柳俊太郎 饰)沆瀣一气,接二连三袭击铃兰的学生。其真正目的是为了挑起黑咲和铃兰两校之间的战火,他则可以趁机摧毁这两所不良大本营。未过多久,加贺美和藤原相互勾结,其势力迅速壮大。

    铃兰空前的危机,激烈浩大的攻防战即将爆发…

◎幕后制作

    日本漫画家高桥弘创作的不良少年题材漫画《热血高校》系列(包括`Crows`与续集`Wrost`两部)以其血脉贲张、跌宕快意的情节和画风,在不良和青春类型领域中享有极高的口碑,目前全系列累计销售量超过7500万册,派生作品接二连三推出,从早期所塑造的坊屋春道、武装战线、花木九里虎,到之后的月岛花、天地寿、月光兄弟,一代代铃兰男儿及其周边来势汹汹的热血青年们上演了无数场精彩刺激的拳脚对决,而在你来我往的对抗中,少年们笃真憨直的友情也成为热血漫画中不可或缺的温情暖流。因此,《热血高校》系列漫画无愧于`不良少年金字塔`之称。

    2007年和2009年,在世界范围内享有极高声誉和关注度的鬼才导演三池崇史将《热血高校》的故事搬上银幕,影片设定在漫画版坊屋春道登场的前一年,由高桥弘亲自执笔创作的GPS、芹泽军团、凤仙军团、武装战线联袂奉献了丝毫不输于原作的校内校外大阵仗,小栗旬、山田孝之、深水元基、三浦春马等人的表现自然分外抢眼,同时也让高桥努、铃之助、远藤要、绫野刚等极具个性和实力的青年演员为更多人所熟知。

    时隔五年,虽然当初三池崇史信誓旦旦将《热血高校2》当作执导的完结篇,但丝毫不能阻挡铃兰少年们继续迈向大银幕的步伐。小栗旬、山田孝之等演员伴随角色的毕业离开剧组,而新的一群不良少年顺势接棒,令战火重开。以《听说桐岛要退部》成名,并主演了2013年晨间剧《多谢款待》的青年演员东出昌大获得主演殊荣,他将摆脱此前塑造的优等生形象,以不良少年之身投入铃兰的大战中去。曾经贵为戛纳电影节最年轻影帝的柳乐悠弥出演了最有实力统一铃兰的三年级生强罗彻,系出名门的女形艺人早乙女太一则一改往昔柔美知性的形象,饰演了染着黄毛的祸头一年级生。铃兰之外的势力,永山绚斗则出演意图颠覆铃兰和黑咲工业的狂暴不良少年藤原一。此外,Soul Brothers第三代成员岩田刚典和Elly、多次荣获国内外舞蹈赛事奖项的Kenzo等人首次触电,为影视界贡献新生代力量。值得一提的是,前两部`元老`深水元基、高桥努和矢部享祐等则第三度加盟剧组。

    本片导演请到同属个性派的丰田利晃,他早年执导过直面描写不良少年残酷青春的《蓝色青春》,对这类题材可谓熟门熟路。不过当年涉毒事件以及近些年几部不甚出众的作品,难免令人对其执导水平捏了一把汗,至于能否与三池版的《热血高校》一较高下,分庭抗礼,还有待票房和观众的评判。

◎花  絮

      ?早年高桥弘对《热血高校》电影化的兴致不高,经饰演片桐拳的矢部享祐积极劝说,才同意改编,所以从这一角度可以理解为什么拳哥在三部戏中都有戏份。

      ?有一场戏东出昌大和胜地凉在浴室里聊天时仇家杀到,二人只能一丝不挂跑到街上。拍摄时正值初春二月,胜地凉一边狂奔一边苦笑,东出则称`很高兴能以旋风雄的身份拍这场戏,这就是青春!`

      ?Elly饰演的山下甲兵经常出言不逊,现实中的他则在很多人面前说话都会感到害羞。他和东出有一场戏,要被对方踢到游泳池里。这场戏拍了两遍,为了体现真实感,东出真的踢到了Elly。

      ?岩田刚典和永山绚斗有一场对决戏,当讨论怎么拍时,导演只说了一句`随你们喜欢!`,接下来两人在垃圾处理场上演了长达十五分钟的即兴搏斗,是正式放映版长度的五倍。

      ?据说片场乱斗场面极其火爆,甚至引来了救护车,个别演员因受伤需要缝针。

      ?胜地凉爆料,为了营造现场的热闹气氛,大家不管认识不认识,每天都像傻瓜一样凑在一起喝酒聊天,气氛自然而然烘托出来。

      ?本片在日本国内307块银幕上同时公映,首周初登场排名第二位,观众满意度排名第五位。


General
ID                             : 1 (0x1)
Complete name                  : 00000.m2ts
Format                         : BDAV
Format/Info                    : Blu-ray Video
File size                      : 36.1 GiB
Duration                       : 2h 9mn
Overall bit rate mode          : Variable
Overall bit rate               : 39.8 Mbps
Maximum Overall bit rate       : 35.5 Mbps

Video
ID                             : 4113 (0x1011)
Menu ID                        : 1 (0x1)
Format                         : AVC
Format/Info                    : Advanced Video Codec
Format profile                 : High@L4.1
Format settings, CABAC         : Yes
Format settings, ReFrames      : 4 frames
Codec ID                       : 27
Duration                       : 2h 9mn
Bit rate mode                  : Constant
Bit rate                       : 37.0 Mbps
Width                          : 1 920 pixels
Height                         : 1 080 pixels
Display aspect ratio           : 16:9
Frame rate                     : 23.976 fps
Color space                    : YUV
Chroma subsampling             : 4:2:0
Bit depth                      : 8 bits
Scan type                      : Progressive
Bits/(Pixel*Frame)             : 0.744
Stream size                    : 34.0 GiB (94%)

Audio
ID                             : 4352 (0x1100)
Menu ID                        : 1 (0x1)
Format                         : TrueHD / AC-3
Mode extension                 : CM (complete main)
Format settings, Endianness    : Big
Muxing mode                    : Stream extension
Codec ID                       : 131
Duration                       : 2h 9mn
Bit rate mode                  : Variable / Constant
Bit rate                       : 640 Kbps
Maximum bit rate               : 2 841 Kbps
Channel(s)                     : 6 channels
Channel positions              : Front: L C R, Side: L R, LFE
Sampling rate                  : 48.0 KHz
Bit depth                      : 16 bits
Stream size                    : 595 MiB (2%)

Text #1
ID                             : 4608 (0x1200)
Menu ID                        : 1 (0x1)
Format                         : PGS
Codec ID                       : 144

Text #2
ID                             : 4609 (0x1201)
Menu ID                        : 1 (0x1)
Format                         : PGS
Codec ID                       : 144

Text #3
ID                             : 4610 (0x1202)
Menu ID                        : 1 (0x1)
Format                         : PGS
Codec ID                       : 144
  评论这张
 
阅读(107)| 评论(0)
推荐 转载

历史上的今天

在LOFTER的更多文章

评论

<#--最新日志,群博日志--> <#--推荐日志--> <#--引用记录--> <#--博主推荐--> <#--随机阅读--> <#--首页推荐--> <#--历史上的今天--> <#--被推荐日志--> <#--上一篇,下一篇--> <#-- 热度 --> <#-- 网易新闻广告 --> <#--右边模块结构--> <#--评论模块结构--> <#--引用模块结构--> <#--博主发起的投票-->
 
 
 
 
 
 
 
 
 
 
 
 
 
 

页脚

网易公司版权所有 ©1997-2017