注册 登录  
 加关注
   显示下一条  |  关闭
温馨提示!由于新浪微博认证机制调整,您的新浪微博帐号绑定已过期,请重新绑定!立即重新绑定新浪微博》  |  关闭

逆风飞翔的鸟

追逐风中散落的默契~

 
 
 

日志

 
 
关于我

曾经迷惑于一份距离 曾经感动于一个传说 …… 在仆仆风中 我伸手 抓住你我的缘分 …… “傻傻”的你 能闻到风中 你我的默契吗?!

网易考拉推荐

【亚洲】A.Time.to.Live.and.a.Time.to.Die.1985.童年往事  

2014-11-29 15:02:56|  分类: 亚洲 |  标签: |举报 |字号 订阅

  下载LOFTER 我的照片书  |
【亚洲】A.Time.to.Live.and.a.Time.to.Die.1985.童年往事 - 歸鴻 - 逆风飞翔的鸟
◎译  名 A Time to Live and a Time to Die
◎片  名 童年往事
◎年  代 1985
◎国  家 中国台湾
◎类  别 传记/剧情
◎语  言 汉语普通话/闽南语/客家话
◎IMDB链接  http://www.imdb.com/title/tt0090185/
◎片  长 137分钟
◎导  演 侯孝贤
◎主  演 梅芳
            唐如韫
            田丰
            游安顺
            辛树芬


◎简    介  

  从大陆迁往台湾的一家人,在表面平静的日子下,各怀心事。祖母(唐如韫)对大陆念念不忘,一心想回去;父(田丰)母(梅芳)虽也有“外省人” 身份的尴尬,却也清楚知道回大陆只是梦一场;姐姐(萧艾)差不多已当自己是台湾本地人,偶尔伤心落泪是因想起为替父母分重担放弃了念大学;小孩子阿孝咕(游安顺),则只想着自己如何玩得痛快,完全没有大陆的概念,而对父亲的死,他只觉突然并无太多伤心。

  可是因为家庭的特殊,懵懂中阿孝咕也知自己并不完全相同于同龄人。尽管表面上他做着多数成长中男孩都会做的事(四处打架、开始中意某个女孩子),内里却已埋下会突然裂变的种子,只等某个契机的来临。


◎幕后制作

    《童年往事》虽然是候孝贤的个人记忆,但其意义却已经远远超越了它平静而朴实的影像,成为那个特有时代的一曲命运交响诗。

    在台湾奉行“临时”政策以来,诸多的文化压抑禁锢着一代外省移民的成长,祖母口中那模糊的老家印象、父亲三年之内就带着家人回广东老家的梦想、孤苦无依、依靠救济集中的老兵、那不许在学校与公共场合说起的闵南语、那些满是政治宣传口吻的虚假战事报道,都是戒严令颁布以来台湾电影几十年都不敢触及的禁忌,但这一切却是民众最为深切的记忆,那种生活细节之间的刻画远远要比长镜头下诗意化的远山近水实在得多。影片的高明之处在于它的写实,而影片的情感升华之处也有赖于它的写实,它不同于传统台湾电影那般大喜大悲的煽情特点,也完全脱离了电影作为第七艺术必然对情感描述刻意创作的一贯本质。影片虽然是侯孝贤的个人化经历,有着主观的叙事线索,但他却坚持以客观的第三者姿态去铺排整个故事的画面,冷静地注视着自己的成长岁月,平实地追溯自己曾经的欢喜与忧伤。

    影片于1985年获第二十二届金马奖最佳原著剧本奖、最佳女配角奖(唐如韫);第6届夏威夷国际影展评委会特别奖。在1986年期间获得了第三十一届亚太影展评委会特别奖,第三十六届西柏林国际电影节国际电影评论家协会奖;1987年期间获得荷兰鹿特丹国际影展非欧美电影最佳电影作品奖。


◎获奖记录

     第36届柏林国际电影节(1986)
     费比西奖-新电影论坛 侯孝贤 Hsiao-hsien Hou

     第22届台湾电影金马奖(1985)
     最佳女配角奖 唐如韫 Ru-Yun Tang  
     最佳原创剧本 朱天文 Zhu Tianwen  侯孝贤 Hsiao-hsien Hou  
     最佳影片(提名) 侯孝贤 Hsiao-hsien Hou  
     最佳导演奖(提名) 侯孝贤 Hsiao-hsien Hou  
     最佳电影原创音乐(提名) 吴楚楚 Chuchu Wu  
     最佳录音奖(提名) 忻江盛 Chiang-Sheng Hsin


General
ID                             : 1 (0x1)
Complete name                  : 00000.m2ts
Format                         : BDAV
Format/Info                    : Blu-ray Video
File size                      : 20.7 GiB
Duration                       : 2h 16mn
Overall bit rate mode          : Variable
Overall bit rate               : 21.7 Mbps
Maximum Overall bit rate       : 35.5 Mbps

Video
ID                             : 4113 (0x1011)
Menu ID                        : 1 (0x1)
Format                         : AVC
Format/Info                    : Advanced Video Codec
Format profile                 : High@L4.1
Format settings, CABAC         : Yes
Format settings, ReFrames      : 4 frames
Codec ID                       : 27
Duration                       : 2h 16mn
Bit rate mode                  : Variable
Bit rate                       : 19.3 Mbps
Maximum bit rate               : 30.0 Mbps
Width                          : 1 920 pixels
Height                         : 1 080 pixels
Display aspect ratio           : 16:9
Frame rate                     : 24.000 fps
Standard                       : NTSC
Color space                    : YUV
Chroma subsampling             : 4:2:0
Bit depth                      : 8 bits
Scan type                      : Progressive
Bits/(Pixel*Frame)             : 0.387
Stream size                    : 18.4 GiB (89%)
Color primaries                : BT.709
Transfer characteristics       : BT.709
Matrix coefficients            : BT.709

Audio
ID                             : 4352 (0x1100)
Menu ID                        : 1 (0x1)
Format                         : PCM
Format settings, Endianness    : Big
Format settings, Sign          : Signed
Muxing mode                    : Blu-ray
Codec ID                       : 128
Duration                       : 2h 16mn
Bit rate mode                  : Constant
Bit rate                       : 1 536 Kbps
Channel(s)                     : 2 channels
Channel positions              : Front: L R
Sampling rate                  : 48.0 KHz
Bit depth                      : 16 bits
Stream size                    : 1.47 GiB (7%)

Text #1
ID                             : 4608 (0x1200)
Menu ID                        : 1 (0x1)
Format                         : PGS
Codec ID                       : 144

Text #2
ID                             : 4609 (0x1201)
Menu ID                        : 1 (0x1)
Format                         : PGS
Codec ID                       : 144
  评论这张
 
阅读(70)| 评论(0)
推荐 转载

历史上的今天

在LOFTER的更多文章

评论

<#--最新日志,群博日志--> <#--推荐日志--> <#--引用记录--> <#--博主推荐--> <#--随机阅读--> <#--首页推荐--> <#--历史上的今天--> <#--被推荐日志--> <#--上一篇,下一篇--> <#-- 热度 --> <#-- 网易新闻广告 --> <#--右边模块结构--> <#--评论模块结构--> <#--引用模块结构--> <#--博主发起的投票-->
 
 
 
 
 
 
 
 
 
 
 
 
 
 

页脚

网易公司版权所有 ©1997-2017