注册 登录  
 加关注
   显示下一条  |  关闭
温馨提示!由于新浪微博认证机制调整,您的新浪微博帐号绑定已过期,请重新绑定!立即重新绑定新浪微博》  |  关闭

逆风飞翔的鸟

追逐风中散落的默契~

 
 
 

日志

 
 
关于我

曾经迷惑于一份距离 曾经感动于一个传说 …… 在仆仆风中 我伸手 抓住你我的缘分 …… “傻傻”的你 能闻到风中 你我的默契吗?!

网易考拉推荐

【亚洲】Black.Comedy.2014.黑色喜剧  

2014-11-29 15:16:45|  分类: 亚洲 |  标签: |举报 |字号 订阅

  下载LOFTER 我的照片书  |
【亚洲】Black.Comedy.2014.黑色喜剧 - 歸鴻 - 逆风飞翔的鸟
◎译  名 Black Comedy
◎片  名 黑色喜剧
◎年  代 2014
◎国  家 中国香港
◎类  别 喜剧
◎语  言 粤语
◎字  幕 简/繁/英
◎IMDB链接  http://www.imdb.com/title/tt3636090
◎片  长 97 Min
◎导  演 钱国伟 Wilson Chin
◎主  演 詹瑞文
            王祖蓝
      邵音音
      杜汶泽


◎简  介 

    勇探杜奇风(王祖蓝 饰)虽然身手不凡,但只有刚好五呎四吋,无法完成他当G4保护特首之心愿,而且女友安琪(童菲 饰)十分野蛮,经常虐待他,令他做人十分无趣。

    由于天堂及地狱正在争夺客人,地狱虽然发送酒后驾驶、喜爱夜蒲、乱骂无罪三项优惠,可是天堂却发送三千呎豪宅、送整容套餐、天天都是假期等优惠,令地狱无人问津,地狱之母唯有派出地狱之子魔鬼太子文西(杜汶泽 饰)来到人间,跟天使詹(詹瑞文 饰)争客,而他们开始了对杜奇风灵魂的争夺。

    文西终用了三个愿望换取杜奇风的灵魂。 第一个愿望是让安琪变成性感安琪,风骚入骨,令杜奇风大享艳福,但他马上发现性感安琪十分豪放,对人人一样热情,令他有绿帽危机; 乃用第二个愿望令安琪变成纯情可爱,而且只爱他一人,但他又很快发现这个安琪其实只有七岁智商,而且是黑社会人物电钻哥(黄光亮 饰)的女儿,令警方认定他是黑帮卧底!

    杜奇风至此反而怀念昔日野蛮的安琪。为了改变上司的看法,他勇闯毒贩巢穴破案,但却意外殉职。 魔鬼文西用第三个愿望令杜奇风借尸还魂上了贱格富商大佬Ben(王宗尧 饰)的身,重新追求野蛮安琪和达成他保护特首的愿望…


General
ID                             : 1 (0x1)
Complete name                  : 00000.m2ts
Format                         : BDAV
Format/Info                    : Blu-ray Video
File size                      : 22.3 GiB
Duration                       : 1h 37mn
Overall bit rate mode          : Variable
Overall bit rate               : 32.7 Mbps
Maximum Overall bit rate       : 35.5 Mbps

Video
ID                             : 4113 (0x1011)
Menu ID                        : 1 (0x1)
Format                         : AVC
Format/Info                    : Advanced Video Codec
Format profile                 : High@L4.1
Format settings, CABAC         : Yes
Format settings, ReFrames      : 4 frames
Codec ID                       : 27
Duration                       : 1h 37mn
Bit rate mode                  : Variable
Bit rate                       : 30.1 Mbps
Maximum bit rate               : 31.0 Mbps
Width                          : 1 920 pixels
Height                         : 1 080 pixels
Display aspect ratio           : 16:9
Frame rate                     : 24.000 fps
Standard                       : NTSC
Color space                    : YUV
Chroma subsampling             : 4:2:0
Bit depth                      : 8 bits
Scan type                      : Progressive
Bits/(Pixel*Frame)             : 0.605
Stream size                    : 20.5 GiB (92%)
Color primaries                : BT.709
Transfer characteristics       : BT.709
Matrix coefficients            : BT.709

Audio #1
ID                             : 4352 (0x1100)
Menu ID                        : 1 (0x1)
Format                         : TrueHD / AC-3
Mode extension                 : CM (complete main)
Format settings, Endianness    : Big
Muxing mode                    : Stream extension
Codec ID                       : 131
Duration                       : 1h 37mn
Bit rate mode                  : Variable / Constant
Bit rate                       : 640 Kbps
Maximum bit rate               : 4 884 Kbps
Channel(s)                     : 6 channels
Channel positions              : Front: L C R, Side: L R, LFE
Sampling rate                  : 96.0 KHz / 48.0 KHz
Bit depth                      : 16 bits
Stream size                    : 447 MiB (2%)

Audio #2
ID                             : 4353 (0x1101)
Menu ID                        : 1 (0x1)
Format                         : TrueHD / AC-3
Mode extension                 : CM (complete main)
Format settings, Endianness    : Big
Muxing mode                    : Stream extension
Codec ID                       : 131
Duration                       : 1h 37mn
Bit rate mode                  : Variable / Constant
Bit rate                       : 640 Kbps
Maximum bit rate               : 4 878 Kbps
Channel(s)                     : 6 channels
Channel positions              : Front: L C R, Side: L R, LFE
Sampling rate                  : 96.0 KHz / 48.0 KHz
Bit depth                      : 16 bits
Stream size                    : 447 MiB (2%)

Text #1
ID                             : 4608 (0x1200)
Menu ID                        : 1 (0x1)
Format                         : PGS
Codec ID                       : 144
Delay relative to video        : 11s 791ms

Text #2
ID                             : 4609 (0x1201)
Menu ID                        : 1 (0x1)
Format                         : PGS
Codec ID                       : 144
Delay relative to video        : 11s 791ms

Text #3
ID                             : 4610 (0x1202)
Menu ID                        : 1 (0x1)
Format                         : PGS
Codec ID                       : 144
Delay relative to video        : 11s 791ms
  评论这张
 
阅读(47)| 评论(0)
推荐 转载

历史上的今天

在LOFTER的更多文章

评论

<#--最新日志,群博日志--> <#--推荐日志--> <#--引用记录--> <#--博主推荐--> <#--随机阅读--> <#--首页推荐--> <#--历史上的今天--> <#--被推荐日志--> <#--上一篇,下一篇--> <#-- 热度 --> <#-- 网易新闻广告 --> <#--右边模块结构--> <#--评论模块结构--> <#--引用模块结构--> <#--博主发起的投票-->
 
 
 
 
 
 
 
 
 
 
 
 
 
 

页脚

网易公司版权所有 ©1997-2017