注册 登录  
 加关注
   显示下一条  |  关闭
温馨提示!由于新浪微博认证机制调整,您的新浪微博帐号绑定已过期,请重新绑定!立即重新绑定新浪微博》  |  关闭

逆风飞翔的鸟

追逐风中散落的默契~

 
 
 

日志

 
 
关于我

曾经迷惑于一份距离 曾经感动于一个传说 …… 在仆仆风中 我伸手 抓住你我的缘分 …… “傻傻”的你 能闻到风中 你我的默契吗?!

网易考拉推荐

【亚洲】Badges.of.Fury.2013.不二神探  

2013-09-03 09:12:18|  分类: 亚洲 |  标签: |举报 |字号 订阅

  下载LOFTER 我的照片书  |
【亚洲】Badges.of.Fury.2013.不二神探 - 歸鴻 - 逆风飞翔的鸟
◎片  名 不二神探
◎英文片名 BADGES OF FURY
◎年  代 2013
◎国  家 中国大陆
◎类  别 悬疑/动作/喜剧
◎语  言 国语/粤语
◎字  幕 简繁中字
◎IMDB链接  http://www.imdb.com/title/tt2644714/
◎片  长 98 Mins
◎导  演 王子鸣
◎编  剧 张炭
◎主  演 王不二(文章 饰)
      黄飞红(李连杰 饰)  
      刘金水(刘诗诗 饰)
      Angela(陈妍希 饰  
      戴依依(柳岩 饰)
      刘星(梁小龙 饰)  
      刘俊(冯德伦 饰)
      李天赐(郑嘉颖 饰  
      姚一韦(谢天华 饰)  


【电影简介】
 
    《不二神探》是由曾策划和监制过《卧虎藏龙》、《霍元甲》、《功夫》、《长江七号》等影片的香港金牌监制崔宝珠担任监制,文章、李连杰、刘诗诗、陈妍希、柳岩主演,新锐导演王子鸣执导的悬疑动作喜剧电影。昔日的“正东铁三角”—崔宝珠、李连杰、元奎再次聚首,分别担任了监制、主演和动作指导。同时,黄晓明、梁小龙、冯德伦、林峰、佟大为、吴京、郑嘉颖、谢天华、马伊琍、邹兆龙、梁家仁、张梓琳、田亮等多位影视明星也于片中友情客串。电影原定于2013年的暑期档6月28日全国公映,后提档至6月21日。该片在未上映前就已在法国戛纳电影节卖出了23个国家和地区的版权,成为了2013年在国外发行较为成功的国产影片之一。

【电影剧情】
 
    3年间,数起“微笑死亡事件”震动了全城,死者均系女演员刘金水(刘诗诗饰)的前男友。面对着巨大的舆论压力,青年警探王不二(文章饰)、即将退休的警员黄飞红(李连杰饰)和他们的女上司Angela(陈妍希饰)受命侦办此案。

  王不二大闹片场、捉拿刘金水,彻底打乱了刘金水的电影拍摄计划,使她苦苦等待的女一号意外泡汤。伤心的刘金水来到了维多利亚港旁,将此前获得的奖杯抛入水中,一直秘密跟踪刘金水的王不二以为刘金水是在销毁证据,遂跳入水中打捞,却发现只是奖杯。

  调查暂时无果,Angela、黄飞红他们发现,刘金水的姐姐戴依依(柳岩饰)屡次抢走刘金水的男友,而这些男人无一例外的死于“微笑死亡事件”。王不二将戴依依带回警局,但很快证明,戴依依无作案时间,而王不二对有魔鬼身材的戴依依非常着迷。

  最终,为了破获“微笑杀人案”,王不二假扮成刘金水的未婚夫,在与刘金水拍摄婚纱照的过程中,刘金水所佩戴的大的夸张的宝石项链引起了王不二的怀疑,黄飞红一眼认出,这枚宝石项链正是当年纽约博物馆失窃的珍宝—“寂寞的眼泪”。

  王不二前往医院捉拿本案幕后的真凶—刘金水的二叔刘星(梁小龙饰),但很快被其打倒在地。关键时刻,黄飞红出现,与刘星展开了最后的对决,平时看似只会毒蛇嘴的黄飞红其实才是真正的高手,最终打败刘星并将其擒获。

  真相最终大白,原来刘金水的父亲和二叔正是当年名噪一时的博物馆大盗。闯荡多年,刘金水的父亲积攒下了大笔的财富却没有一个家,所以在临终前留下遗嘱:只要刘金水在30岁前结婚,将会继承其所有的财富。而刘金水的二叔为了阻止这笔巨大的财富落到刘金水手中,几年间杀死了刘金水的数名男友,阻止其结婚。

  在为父亲留给自己的最后遗物—“寂寞的眼泪”被归还博物馆而伤心的刘金水却意外得知,原来父亲还有一样东西留给她,就是一副并非无价之宝但却充满了家的温馨的手绘画—“莉莉之海”。“微笑杀人案”与“博物馆被盗案”的破获,警局上下皆大欢喜,黄飞红顺利退休、Angela也成功升职。假扮王不二未婚妻的刘金水渐渐对王不二产生了感情,而一直与王不二是欢喜冤家的女上司Angela也一直在追求王不二。王不二告诉刘金水,他已经心有所属,Angela很是得意,以为王不二心中之人是她,但很快发现,原来王不二最感兴趣的竟是屡次抢走刘金水男友的姐姐戴依依。刘金水终究难逃宿命,心目中的男友再一次的被姐姐戴依依抢走,而一直向王不二发出委婉表白的Angela也有一种被耍弄的感觉,愤怒的二女联手将王不二打上了天……

【影片花絮】

  在光线影业的新片发布会上,由新锐导演王子鸣执导,李连杰、文章、刘诗诗共同主演的动作喜剧《不二神探》显得尤为抢眼,该片也将成为李连杰、文章继《海洋天堂》、《白蛇传说》之后的三度合作。对于如何搞定两位大牌,导演王子鸣笑称:“演员都是监制崔宝珠联系的,而电影将是一部喜剧动作片。并且这次李连杰会负责搞笑,文章也可以武打。”

  王子鸣还透露:“文章已经开始秘密练习功夫了。”而在电影女主角方面,王子鸣表示:“也是两个女星搭配。一个现在可以说,是刘诗诗;另一个要等老板同意了。”

  李连杰变身“毒舌萌叔”

  由光线影业出品,王子鸣执导,文章、李连杰、刘诗诗、陈妍希等主演的动作喜剧大片《不二神探》发布先导海报和“剧场版”预告片,定档2013年6月21日上映,抢滩暑期档。首款海报以文章飞车追逐的剪影为主体,相当动感有型,预告片则大显喜剧风格,悬案迭起,动作凌厉,李连杰变身“毒舌”,文章玩命办案。

  《不二神探》是李连杰、文章这对“父子”继《海洋天堂》、《白蛇传说》之后的第三次联手,这次两人的合作发生了质的转变,改走喜剧路线。文章饰演的王不二和李连杰饰演的黄飞红是警局一对出了名的奇葩警探,一个冒失冲动,屡屡犯二;一个贪生怕死,嘴贱心软。李连杰不仅继续演动作戏,和各路高手过招,还开始尝试喜剧风格,凭“你演脑残一定拿影帝”之类的台词瞬间变身“毒舌萌叔”,让人惊喜。

  文章李连杰现场穿墙取物 李连杰想演反派被文章打倒

  在《不二神探》中李连杰、文章越合作越颠覆,这次两人走喜剧路线,饰演一对奇葩警探。李连杰说:“这戏本来和我没关系,文章说给我看个剧本,我觉得挺好笑的,他说你觉得好吗?我说我觉得很好,他说那我带你玩吧。” 生活中的老好人李连杰则似乎更期待演反派角色,“我就演一个大反派,来了之后让文章打倒了,也就成就文章的功夫喜剧明星了。”作为“功夫之王”的儿子,文章认为自己“打的非常好”。现场在李连杰的指导下两人更是上演了一出“穿墙取物”的好戏。

  刘诗诗变惊艳 挑战美少女造型

  刘诗诗在《不二神探》中饰演众多型男争相追逐的美女刘金水,但刘诗诗这次并非是固定的淑女形象,片中她造型相当多变,有刚有柔,亦正亦邪,堪称“百变女神”。“戏里是千变万化,古装的,现代的,外卖女神,美少女,比基尼,你想得到的想不到的都有”,造型指导陈顾方说。一个美少女造型,刘诗诗戴着黄色假发,穿着学生制服,十足抢镜,连刘诗诗自己都忍不住大呼“妖怪来了”。

  相比于各种大胆的造型,生活中内敛文静的刘诗诗坦言更喜欢片中生活装,长裙、婚纱、礼服、礼帽,每一件生活装都相当优雅精致,气质脱俗,与夸张造型形成鲜明对比,更令角色蒙上神秘色彩。而刘诗诗自曝“很保守”,最怕穿比基尼,但在陈顾方的坚持下不得不性感上阵,奉献最大尺度。网友调侃:穿上比基尼的诗诗,也成了影片的一个亮点吧。

  陈妍希对文章施暴不断 戏里戏外成欢喜冤家

  自称生活中很“男孩子气”的陈妍希这次饰演泼辣娇蛮女警Angela,由清纯靓丽的“全民女神”变身成大大咧咧的“野蛮女神”。片中,她领导着文章、李连杰这对奇葩神探破解各种迷案,“骂、拍、打”成为她领导文章的三板斧,特辑中陈妍希霸气外漏,不仅对文章打不停手,骂不停口,更对刘诗诗、柳岩上演暴力审问,针锋相对,场面相当火爆。

  因为有那么多吵架的戏份,所以两人“私下也非常敬业,在大家看不到的时候,也拼命的练习这件事”,斗嘴、打闹时刻不停,喜剧效果不输戏内,“我发现每次只要我一打他,工作人员就会笑,大家很爱看我打他”,陈妍希说。连李连杰都忍不住在马伊琍面前说:“看他们当着面都敢闹。”

  柳岩展现致命吸引力 “ 除了漂亮还是漂亮”

  柳岩在《不二神探》中饰演颠倒众生的“万人迷”戴依依,每一次出场都惊爆众人眼球,引起一番骚动。因为饰演万人迷,所以对“妆、发、着装要求都甚高,定妆定的非常辛苦”,光造型定妆就定了三次,最后锁定在侧偏头,卷发,紧身性感礼服的典型“万人迷”造型。

  “这个角色除了漂亮还是漂亮,要对男人有致命的吸引力。这样我的目的就达到了”,柳岩直言自己饰演的就是性感尤物,陈顾方也表示因为柳岩“很清楚自己饰演的角色需要什么,所以一点也不做作,让她穿一些比较暴露的衣服,或者是很浓的妆,她一点也不介意。而柳岩也讲述了自己对于性感的看法:“如果是硬要展现性感,或者为吸引眼球去那样穿,会让人看着不舒服,可如果她在那个情境当中,是个万人迷角色,就OK。”

  2013年中国香港,柳岩一袭复古黑色碎花短裙现身街头,略施粉黛的她一副悠闲自在模样,吃路边摊,挎名包悠闲喝奶茶。

  《不二神探》是近年难得[2]一见的纯正动作喜剧,李连杰、文章负责动作和喜剧,而三位女主角则是各有特色,同台竞艳,让电影变得热闹非凡。2013年6月21日,盛夏狂欢,不二之选,看众多大牌搞笑狂欢,奉献消暑大餐。

  郑嘉颖客串《不二神探》 戳笑点显喜剧天分

  《不二神探》被称“神开头”,郑嘉颖作为“酱油君”第一个出场,在剧中的角色不到一分钟就挂掉了,让冲着他进影院的观众多少有些惋惜,但在有限的戏份中郑嘉颖的搞笑和演技却令所有人印象深刻。郑嘉颖在片中饰演一名叫天赐的演员,故事刚开头便“微笑阵亡”,整个过程十分喜感。“导演我恐高”的台词配上郑嘉颖的呆萌搞笑表情令人捧腹,不少观众称“郑嘉颖一出场就把我惊到了,笑死了”、“整个片子印象最深的就是郑嘉颖那个很二的笑容,到现在还浮现在我眼前”。

  一直想演喜剧角色的郑嘉颖此次在《不二神探》中算是过了把瘾,虽然出场时间很短,但也足以秒杀观众令人印象深刻,不少观众呼吁“快来找郑嘉颖演喜剧吧,他绝对能hold住角色!”

  20大明星客串惊喜连连

  电影不仅有文章、李连杰和三位女神坐镇,更有20多位红星客串助阵,佟大为、林峰、郑嘉颖、冯德伦、谢天华、田亮、方力申惊喜亮相,与三位女神上演爱情追逐战。张梓琳、邓丽欣、何超仪三位美女则惊鸿一瞥,各有风采。邹兆龙、吴京、梁家仁、梁小龙则组成了功夫巨星咖,与李连杰、文章上演拳脚大战。

  而黄晓明和马伊琍的演出更是抢镜,黄晓明饰演的黑衣人闯进警察局,和李连杰、文章、陈妍希上演搞笑戏码。马伊琍饰演的总警司,则上演一出骂人好戏,对文章、李连杰、陈妍希三人大开“骂功”,逼得文章不得不说“在家要听老婆的,在外要服领导。”

  提档6.21,票房近3亿

  由文章、李连杰、刘诗诗、陈妍希、柳岩主演的动作喜剧大片《不二神探》2013年6月21日起全国热映,上映三天,票房即近亿元(9560万《中国电影报》数据)。昨日,《不二神探》在北京举行“盛夏狂欢明星观影礼”。

  当天,导演王子鸣和主演文章、李连杰、刘诗诗、陈妍希、柳岩出席了观影礼映前发布会。文章在电影里扮演一个叫王不二的探,但却“二”得可爱,二出了境界,全面赶超了当年的王小贱。而李连杰则被封为“新一代毒王”,拳脚功夫毒辣之外,嘴上功夫也是无敌,吐槽无数、金句乱飞,让人叹为观止。发布会现场,他也发挥“毒舌”本领,评价深受三位女神喜爱的文章:“他现实生活中完不成的理想,在电影里都实现了。”
这是李连杰和文章的再次合作。李连杰打趣地说,上一部电影他演文章的老爸,但现在是文章“带他玩儿”,“文章不当头牌,我不演这部电影”。

  刘诗诗、陈妍希、柳岩三大美女虽然在戏里都喜欢王不二,但命运各有不同。刘诗诗说自己很“点儿背”:“每个男朋友都求过婚,都被拐跑了,然后又死了。”柳岩则自称“剩女”:“我在戏里眉来眼去的只有文章,对李连杰大哥小勾引一下,他还不理我。”陈妍希则称:“我平时有点男孩子气,但也不像戏里那样对文章拳打脚踢。”
而文章的妻子马伊琍为了力挺老公,也在电影中客串了一个角色,她的文章的对手戏就是骂文章。李连杰忍不住调侃文章“在生活中也是如此”。

  作为《不二神探》的出品方,光线传媒董事长王长田最后发表感言:“《不二神探》是我们新导演计划的第五部作品,前面几部一共已经取得了21亿元票房,说明我们的选择没有错,还会继续努力。”并透露今年还会有几个新导演的处女作面世。



  General #1
    ID : 1 (0x1)
    Complete name : 00000.m2ts
    Format : BDAV
    Format/Info : Blu-ray Video
    File size : 21.5 GiB
    Duration : 1h 37mn
    Overall bit rate mode : Variable
    Overall bit rate : 31.4 Mbps
    Maximum Overall bit rate : 35.5 Mbps
  Video #4113
    ID : 4113 (0x1011)
    Menu ID : 1 (0x1)
    Format : AVC
    Format/Info : Advanced Video Codec
    Format profile : High@L4.1
    Format settings, CABAC : Yes
    Format settings, ReFrames : 4 frames
    Format settings, GOP : M=3, N=24
    Codec ID : 27
    Duration : 1h 37mn
    Bit rate mode : Variable
    Bit rate : 28.9 Mbps
    Maximum bit rate : 32.0 Mbps
    Width : 1 920 pixels
    Height : 1 080 pixels
    Display aspect ratio : 16:9
    Frame rate : 24.000 fps
    Standard : NTSC
    Color space : YUV
    Chroma subsampling : 4:2:0
    Bit depth : 8 bits
    Scan type : Progressive
    Bits/(Pixel*Frame) : 0.580
    Stream size : 19.7 GiB (92%)
    Color primaries : BT.709
    Transfer characteristics : BT.709
    Matrix coefficients : BT.709
  Audio #4352
    ID : 4352 (0x1100)
    Menu ID : 1 (0x1)
    Format : TrueHD / AC-3
    Mode extension : CM (complete main)
    Format settings, Endianness : Big
    Muxing mode : Stream extension
    Codec ID : 131
    Duration : 1h 37mn
    Bit rate mode : Variable / Constant
    Bit rate : 640 Kbps
    Maximum bit rate : 4 962 Kbps
    Channel(s) : 6 channels
    Channel positions : Front: L C R, Side: L R, LFE
    Sampling rate : 96.0 KHz / 48.0 KHz
    Bit depth : 16 bits
    Stream size : 448 MiB (2%)
    Language : Chinese
  Audio #4353
    ID : 4353 (0x1101)
    Menu ID : 1 (0x1)
    Format : TrueHD / AC-3
    Mode extension : CM (complete main)
    Format settings, Endianness : Big
    Muxing mode : Stream extension
    Codec ID : 131
    Duration : 1h 37mn
    Bit rate mode : Variable / Constant
    Bit rate : 640 Kbps
    Maximum bit rate : 4 962 Kbps
    Channel(s) : 6 channels
    Channel positions : Front: L C R, Side: L R, LFE
    Sampling rate : 96.0 KHz / 48.0 KHz
    Bit depth : 16 bits
    Stream size : 448 MiB (2%)
    Language : Chinese
  Text #4608
    ID : 4608 (0x1200)
    Menu ID : 1 (0x1)
    Format : PGS
    Codec ID : 144
    Language : Chinese
  Text #4609
    ID : 4609 (0x1201)
    Menu ID : 1 (0x1)
    Format : PGS
    Codec ID : 144
    Language : Chinese
  Text #4610
    ID : 4610 (0x1202)
    Menu ID : 1 (0x1)
    Format : PGS
    Codec ID : 144
    Language : English
  评论这张
 
阅读(102)| 评论(0)
推荐 转载

历史上的今天

在LOFTER的更多文章

评论

<#--最新日志,群博日志--> <#--推荐日志--> <#--引用记录--> <#--博主推荐--> <#--随机阅读--> <#--首页推荐--> <#--历史上的今天--> <#--被推荐日志--> <#--上一篇,下一篇--> <#-- 热度 --> <#-- 网易新闻广告 --> <#--右边模块结构--> <#--评论模块结构--> <#--引用模块结构--> <#--博主发起的投票-->
 
 
 
 
 
 
 
 
 
 
 
 
 
 

页脚

网易公司版权所有 ©1997-2017