注册 登录  
 加关注
   显示下一条  |  关闭
温馨提示!由于新浪微博认证机制调整,您的新浪微博帐号绑定已过期,请重新绑定!立即重新绑定新浪微博》  |  关闭

逆风飞翔的鸟

追逐风中散落的默契~

 
 
 

日志

 
 
关于我

曾经迷惑于一份距离 曾经感动于一个传说 …… 在仆仆风中 我伸手 抓住你我的缘分 …… “傻傻”的你 能闻到风中 你我的默契吗?!

网易考拉推荐

【剧情】Absence.of.Malice.1981.并无恶意  

2013-09-03 09:10:34|  分类: 剧情 |  标签: |举报 |字号 订阅

  下载LOFTER 我的照片书  |
【剧情】Absence.of.Malice.1981.并无恶意 - 歸鴻 - 逆风飞翔的鸟
◎译  名 没有恶意/疑犯/并无恶意/惡意的缺席/無心之過
◎片  名 Absence of Malice
◎年  代 1981
◎国  家 美国
◎类  别 剧情/爱情/惊悚
◎语  言 英语
◎字  幕 中文
◎IMDB链接  http://www.imdb.com/title/tt0081974/
◎片  长 01:56:15
◎导  演 西德尼·波拉克 Sydney Pollack
◎主  演 保罗·纽曼 Paul Newman ....Michael Colin Gallagher
      莎莉·菲尔德 Sally Field ....Megan Carter
      鲍勃·巴拉班 Bob Balaban ....Elliott Rosen
      梅林达·狄龙 Melinda Dillon ....Teresa Perrone
      卢瑟·艾德勒 Luther Adler ....Uncle Santos Malderone
      Barry Primus ....Bob Waddell
      Josef Sommer ....McAdam
      John Harkins ....Davidek
      Don Hood ....Dist. Atty. James A. Quinn
      威尔福德·布利姆雷 Wilford Brimley ....Asst. U.S. Atty. Gen. James A. Wells
      Arnie Ross ....FBI Agent Eddie Frost
      Anna Marie Napoles ....Nickie
      Shelley Spurlock ....Sarah Wylie
      Shawn McAllister ....Santos Hood 1
      Joe Petrullo ....Santos Hood 2
      Rooney Kerwin ....Walker (as Rooney Kerwin)
      Oswaldo Calvo ....John Arrega
      Clardy Malugen ....Donna


◎简  介

  某天早晨,Michel (Paul Newman饰)翻开报纸,赫然发现自己成了报纸头条,报导的内容看似正确,却非事实,他正陷入一个犯罪调查事件中……



  General #1
    ID : 1 (0x1)
    Complete name : 00000.m2ts
    Format : BDAV
    Format/Info : Blu-ray Video
    File size : 19.5 GiB
    Duration : 1h 56mn
    Overall bit rate mode : Variable
    Overall bit rate : 24.0 Mbps
    Maximum Overall bit rate : 35.5 Mbps
  Video #4113
    ID : 4113 (0x1011)
    Menu ID : 1 (0x1)
    Format : AVC
    Format/Info : Advanced Video Codec
    Format profile : High@L4.1
    Format settings, CABAC : Yes
    Format settings, ReFrames : 2 frames
    Format settings, GOP : M=1, N=10
    Codec ID : 27
    Duration : 1h 56mn
    Bit rate mode : Variable
    Bit rate : 21.5 Mbps
    Width : 1 920 pixels
    Height : 1 080 pixels
    Display aspect ratio : 16:9
    Frame rate : 23.976 fps
    Color space : YUV
    Chroma subsampling : 4:2:0
    Bit depth : 8 bits
    Scan type : Progressive
    Bits/(Pixel*Frame) : 0.432
    Stream size : 17.4 GiB (90%)
  Audio #4352
    ID : 4352 (0x1100)
    Menu ID : 1 (0x1)
    Format : PCM
    Format settings, Endianness : Big
    Format settings, Sign : Signed
    Muxing mode : Blu-ray
    Codec ID : 128
    Duration : 1h 56mn
    Bit rate mode : Constant
    Bit rate : 1 536 Kbps
    Channel(s) : 2 channels
    Channel positions : Front: L R
    Sampling rate : 48.0 KHz
    Bit depth : 16 bits
    Stream size : 1.25 GiB (6%)
    Language : English
  Text #4608
    ID : 4608 (0x1200)
    Menu ID : 1 (0x1)
    Format : PGS
    Codec ID : 144
    Language : Chinese
  Text #4609
    ID : 4609 (0x1201)
    Menu ID : 1 (0x1)
    Format : PGS
    Codec ID : 144
    Language : Chinese
  Text #4610
    ID : 4610 (0x1202)
    Menu ID : 1 (0x1)
    Format : PGS
    Codec ID : 144
    Language : English
  Text #4611
    ID : 4611 (0x1203)
    Menu ID : 1 (0x1)
    Format : PGS
    Codec ID : 144
    Language : Spanish
  评论这张
 
阅读(105)| 评论(0)
推荐 转载

历史上的今天

在LOFTER的更多文章

评论

<#--最新日志,群博日志--> <#--推荐日志--> <#--引用记录--> <#--博主推荐--> <#--随机阅读--> <#--首页推荐--> <#--历史上的今天--> <#--被推荐日志--> <#--上一篇,下一篇--> <#-- 热度 --> <#-- 网易新闻广告 --> <#--右边模块结构--> <#--评论模块结构--> <#--引用模块结构--> <#--博主发起的投票-->
 
 
 
 
 
 
 
 
 
 
 
 
 
 

页脚

网易公司版权所有 ©1997-2017