注册 登录  
 加关注
   显示下一条  |  关闭
温馨提示!由于新浪微博认证机制调整,您的新浪微博帐号绑定已过期,请重新绑定!立即重新绑定新浪微博》  |  关闭

逆风飞翔的鸟

追逐风中散落的默契~

 
 
 

日志

 
 
关于我

曾经迷惑于一份距离 曾经感动于一个传说 …… 在仆仆风中 我伸手 抓住你我的缘分 …… “傻傻”的你 能闻到风中 你我的默契吗?!

网易考拉推荐

【幻想】The.Haunting.in.Connecticut.2.Ghosts.of.Georgia.2013.太平间闹鬼事件2佐治亚鬼屋事件  

2013-09-03 14:33:53|  分类: 幻想 |  标签: |举报 |字号 订阅

  下载LOFTER 我的照片书  |
【幻想】The.Haunting.in.Connecticut.2.Ghosts.of.Georgia.2013.太平间闹鬼事件2佐治亚鬼屋事件 - 歸鴻 - 逆风飞翔的鸟
◎译  名 太平间闹鬼事件2:佐治亚鬼屋事件/阴魂不散
◎片  名 The Haunting in Connecticut 2: The Ghosts of Georgia
◎年  代 2013
◎国  家 美国
◎类  别 剧情/恐怖
◎语  言 英语
◎IMDB链接  http://www.imdb.com/title/tt1457765
◎片  长 100 mins
◎导  演 汤姆·艾尔金斯
◎主  演 凯缇·萨克霍夫 Katee Sackhoff  ....Joyce
      查德·迈克尔·墨瑞 Chad Michael Murray  ....Andy Wyrick
      阿比盖尔·斯宾赛 Abigail Spencer  ....Lisa Wyrick
      西西莉·泰森 Cicely Tyson
      艾米丽·阿琳·林德 Emily Alyn Lind  ....Heidi
      安德里亚·弗兰克 Andrea Frankle  ....Dr. Segar
      Brad James  ....Prentiss
      兰斯E·尼科尔斯 Lance E. Nichols  ....Pastor Wells
      Wayne Pére  ....Station Master
      Lauren Pennington  ....Nell
      Morgana Shaw  ....Lisa's mom
      格兰特·杰姆斯 Grant James  ....Mr. Gordy


◎简  介

  1993年,拥有幸福美满家庭的丽萨·威瑞克(阿比盖尔·斯宾赛 Abigail Spencer 饰)精神饱受折磨,她的家族患有遗传病症,她和姐姐乔希(凯缇·萨克霍夫 Katee Sackhoff 饰)都能看到奇怪的景象,去世母亲的身影时时出现在她面前,声称要告诉她一些事情。为了帮助妻子治疗,丈夫安迪(查德·迈克尔·墨瑞 Chad Michael Murray 饰)在佐治亚的林间买了一间小屋,可是宝贝女儿海蒂(艾米莉·艾林·林德 Emily Alyn Lind 饰)却由此声称能够看到一位名叫高迪的老人。乔希和安迪先后印证了海蒂的说法,但依赖药物的丽萨坚信这都是小女孩的臆想。在此之后,事态朝着不可预知的方向发展……

  这次的闹鬼故事发生在佐治亚州,四岁的小姑娘Heidi和同龄人一样,有两个想象中的朋友Gordy先生跟Con先生。当她透露出越来越多关于这两人的神秘细节时,Heidi的父母开始担忧起来。这两个虚构的人真的仅仅是出自女儿的幻想吗?当所有家庭成员都经历过令人崩溃的恐怖灵异现象(一堆带着深可触骨伤口的尸体)之后,该是做出行动的时候了。

◎电影相关

  美国真是个“鬼地方”,继《太平间闹鬼事件》第一部在康涅狄格州发生灵异事件后,第二部又以佐治亚州为故事背景开启了最新的“鬼玩人”。虽然片名听起来如此拗口,但它也通过片名向我们透露出这依然是根据探索频道的纪录片《太平间闹鬼事件》为蓝本而改编的恐怖电影。

  虽然片名十分老土,并且那些“霸气外露”自吹自擂的片名总是让人在观看之后产生巨大落差,但是看过这支预告片后这种疑虑基本可以打消了,因为它看起来似乎还不错。虽然没有对鬼魂的特写镜头,但我们通过主人公小女孩的眼睛看到了树林里闪现的白衣女鬼,无故晃动的秋千和坐在其上的黑人鬼魂闪影,还有自动弹奏的钢琴键……

  一切的一切都在暗示我们有着一股不可见的黑暗力量与人们生活在一起。而小女孩在深不可测的井底呼喊父亲以及女孩照片外壁玻璃的碎裂都在告诉我们,这个可怜的小女孩将要在电影里受到鬼虐。片尾以一组凌乱的快速剪辑将鬼影、人的恐慌表情、像《驱魔人》一样的睡衣鬼怪女孩,失控的局面等等元素集合在一起,将恐慌感传递给观众。没错,从预告片来看,它基本上就是一出良好的老式鬼故事。

  本片主要讲述了,佐治亚州的四岁小姑娘Heidi和同龄人一样,有两个想象中的朋友Gordy先生跟Con先生。当她透露出越来越多关于这两人的神秘细节时,Heidi的父母开始担忧起来。这两个虚构的人真的仅仅是出自女儿的幻想吗?当所有家庭成员都经历过令人崩溃的恐怖灵异现象(一堆带着深可触骨伤口的尸体)之后,该是做出行动的时候了……



  General #1
    ID : 1 (0x1)
    Complete name : 00000.m2ts
    Format : BDAV
    Format/Info : Blu-ray Video
    File size : 19.0 GiB
    Duration : 1h 40mn
    Overall bit rate mode : Variable
    Overall bit rate : 27.0 Mbps
    Maximum Overall bit rate : 35.5 Mbps
  Video #4113
    ID : 4113 (0x1011)
    Menu ID : 1 (0x1)
    Format : AVC
    Format/Info : Advanced Video Codec
    Format profile : High@L4.1
    Format settings, CABAC : Yes
    Format settings, ReFrames : 4 frames
    Codec ID : 27
    Duration : 1h 40mn
    Bit rate mode : Variable
    Bit rate : 25.2 Mbps
    Maximum bit rate : 32.0 Mbps
    Width : 1 920 pixels
    Height : 1 080 pixels
    Display aspect ratio : 16:9
    Frame rate : 24.000 fps
    Standard : NTSC
    Color space : YUV
    Chroma subsampling : 4:2:0
    Bit depth : 8 bits
    Scan type : Progressive
    Bits/(Pixel*Frame) : 0.507
    Stream size : 17.8 GiB (94%)
    Color primaries : BT.709
    Transfer characteristics : BT.709
    Matrix coefficients : BT.709
  Audio #4352
    ID : 4352 (0x1100)
    Menu ID : 1 (0x1)
    Format : TrueHD / AC-3
    Mode extension : CM (complete main)
    Format settings, Endianness : Big
    Muxing mode : Stream extension
    Codec ID : 131
    Duration : 1h 40mn
    Bit rate mode : Variable / Constant
    Bit rate : 640 Kbps
    Maximum bit rate : 6 402 Kbps
    Channel(s) : 8 channels / 6 channels
    Channel positions : Front: L C R, Side: L R, Back: L R, LFE / Front: L C R, Side: L R, LFE
    Sampling rate : 96.0 KHz / 48.0 KHz
    Bit depth : 16 bits
    Stream size : 462 MiB (2%)
    Language : English
  Text #4608
    ID : 4608 (0x1200)
    Menu ID : 1 (0x1)
    Format : PGS
    Codec ID : 144
    Language : Chinese
  Text #4609
    ID : 4609 (0x1201)
    Menu ID : 1 (0x1)
    Format : PGS
    Codec ID : 144
    Language : English
  评论这张
 
阅读(170)| 评论(0)
推荐 转载

历史上的今天

在LOFTER的更多文章

评论

<#--最新日志,群博日志--> <#--推荐日志--> <#--引用记录--> <#--博主推荐--> <#--随机阅读--> <#--首页推荐--> <#--历史上的今天--> <#--被推荐日志--> <#--上一篇,下一篇--> <#-- 热度 --> <#-- 网易新闻广告 --> <#--右边模块结构--> <#--评论模块结构--> <#--引用模块结构--> <#--博主发起的投票-->
 
 
 
 
 
 
 
 
 
 
 
 
 
 

页脚

网易公司版权所有 ©1997-2017