注册 登录  
 加关注
   显示下一条  |  关闭
温馨提示!由于新浪微博认证机制调整,您的新浪微博帐号绑定已过期,请重新绑定!立即重新绑定新浪微博》  |  关闭

逆风飞翔的鸟

追逐风中散落的默契~

 
 
 

日志

 
 
关于我

曾经迷惑于一份距离 曾经感动于一个传说 …… 在仆仆风中 我伸手 抓住你我的缘分 …… “傻傻”的你 能闻到风中 你我的默契吗?!

网易考拉推荐

【剧情】Mrs.Miniver.1942.忠勇之家  

2013-08-02 11:57:14|  分类: 剧情 |  标签: |举报 |字号 订阅

  下载LOFTER 我的照片书  |
【剧情】Mrs.Miniver.1942.忠勇之家 - 归鸿 - 逆风飞翔的鸟
◎译  名 忠勇之家
◎片  名 Mrs. Miniver
◎年  代 1942
◎国  家 美国
◎类  别 剧情/爱情/战争
◎语  言 英语/俄语
◎IMDB链接 http://www.imdb.com/title/tt0035093/
◎片  长 02:13:38
◎导  演 威廉·惠勒 William Wуler
◎主  演 葛丽亚·嘉逊 Greer Garson ....Mrs. Miniver
      沃尔特·皮金 Walter Pidgeon ....Clem Miniver
      特雷莎·怀特 Teresa Wright ....Carol Beldon
      梅·惠蒂 Dame May Whitty ....Lady Beldon
      雷吉纳德·欧文 Reginald Owen ....Foley
      赫尔穆特·丹丁 Helmut Dantine ....German Flyer
      李奥纳多·凯瑞 Leonard Carey ....Chandler, Beldon Butler (uncredited)
      汤姆·康威 Tom Conway ....Man (uncredited)
      亨利·金 Henry King ....Man in Tavern (uncredited)
      彼特·劳福德 Peter Lawford ....Pilot (uncredited)
      亨利·特拉维斯 Henry Travers ....Mr. Ballard
      理查德·内伊 Richard Ney ....Vin Miniver
      亨利·威尔克松 Henry Wilcoxon ....Vicar
      Christopher Severn ....Toby Miniver
      Brenda Forbes ....Gladys - Housemaid
      Clare Sandars ....Judy Miniver
      Marie De Becker ....Ada
      John Abbott ....Fred
      Rhys Williams ....Horace
      Harry Allen ....William (uncredited)
      Frank Atkinson ....Man in Tavern (uncredited)
      Sybil Bacon ....Contestant (uncredited)
      Frank Baker ....Policeman (uncredited)
      Virginia Bassett ....Glee Club Member (uncredited)
      Louise Bates ....Miniver Guest (uncredited)
      Guy Bellis ....Barman (uncredited)
      Charles Bennett ....Milkman (uncredited)
      Florence Benson ....Contestant (uncredited)
      Art Berry Sr. ....Man in Store (uncredited)
      Billy Bevan ....Bus Conductor (uncredited)
      Ted Billings ....Man in Tavern (uncredited)
      John Burton ....Halliday (uncredited)
      Gene Byram ....Glee Club Member (uncredited)
      Walter Byron ....Man in tavern (uncredited)
      Colin Campbell ....Bickles, Flower Show Manager (uncredited)
      Aileen Carlyle ....Glee Club Member (uncredited)
      Herbert Clifton ....Doctor (uncredited)
      David Clyde ....Carruthers (uncredited)
      Edward Cooper ....Waiter (uncredited)
      Alec Craig ....Joe (uncredited)
      Sidney D'Albrook ....Man in Store (uncredited)
      Irene Denny ....Glee Club Member (uncredited)
      David Dunbar ....Man in Store (uncredited)
      Billy Engle ....Townsman (uncredited)
      Herbert Evans ....Glee Club Member (uncredited)
      Mary Field ....Miss Spriggins (uncredited)
      E.L. Fisher-Smith ....Policeman (uncredited)
      Douglas Gordon ....Porter (uncredited)
      Hugh Greenwood ....Contestant (uncredited)
      Bobbie Hale ....Old Man (uncredited)
      Eddie Hall ....RAF Flyer running out the door (uncredited)
      Forrester Harvey ....Mr. Huggins (uncredited)
      Harold Howard ....Judge (uncredited)
      Charles Irwin ....Mac (uncredited)
      Colin Kenny ....Policeman (uncredited)
      Thomas Louden ....Mr. Verger (uncredited)
      Miles Mander ....German Agent's Voice (uncredited)
      Stanley Mann ....Workman (uncredited)
      Aubrey Mather ....George (uncredited)
      Dan Maxwell ....Man in Tavern (uncredited)
      Alice Mock ....Lady Passenger (uncredited)
      Eula Morgan ....Glee Club Member (uncredited)
      Ottola Nesmith ....Saleslady (uncredited)
      Gil Perkins ....Man in Tavern (uncredited)
      John Power ....Man in Tavern (uncredited)
      Clara Reid ....Mrs. Huggins (uncredited)
      Paul Scardon ....Nobby (uncredited)
      Leslie Sketchley ....Policeman (uncredited)
      Gerald Oliver Smith ....Car Dealer (uncredited)
      Vivia Steele ....Glee Club Member (uncredited)
      David Thursby ....Farmer (uncredited)
      Leslie Vincent ....Carol's First Dancing Partner (uncredited)
      Kitty Watson ....Contestant (uncredited)
      Ben Webster ....Ginger (uncredited)
      Tudor Williams ....Glee Club Member (uncredited)
      Arthur Wimperis ....Sir Henry (uncredited)
      Marek Windheim ....Glee Club Member (uncredited)
      Florence Wix ....Woman with Dog (uncredited)
      Ian Wolfe ....Dentist (uncredited)
      Thomas Louden ....Mr. Verger (uncredited)



◎简  介

剧情

  在第二次世界大战期间拍摄的战争文艺片,以英国伦敦的一个中产阶级家庭为模特儿,透过他们一家的战时遭遇来反映大后方老百姓团结抗战的热诚,颇能鼓舞民心士气,曾获最佳影片等六项金像奖,在今天看来依旧有其艺术和娱乐价值。本片取材自英国女记者的通讯报导集,经四名编剧将内容加工提炼成为结构完整的剧本。导演威廉.怀勒充分掌握住战时生活的气氛和人物之间的浓厚感情,拍出了邻里间平凡中见不平凡的一面。饰演女主角米尼弗夫人的格里尔·加森表现出后方家庭主妇的坚强和韧性,是极成功的贤妻良角色。

获奖记录

第15届奥斯卡金像奖(1943)  奥斯卡奖-最佳影片 
第15届奥斯卡金像奖(1943)  奥斯卡奖-最佳男主角(提名)  沃尔特·皮金
第15届奥斯卡金像奖(1943)  奥斯卡奖-最佳女主角  葛丽亚·嘉逊

幕后制作

  属于“主旋律”作品但真诚有加,今天看来依然有感人之处。在当年一批宣传味浓烈的英雄片中,本片以其人道精神和人文关怀反映战时小市民的生活而脱颖而出。片尾的演说被印成传单,在士兵中散发,起到很好的鼓励作用。本片取材自英国女记者的通讯报导集,经四名编剧将内容加工提炼成为结构完整的剧本。导演充分掌握战时生活的气氛和人物之间的浓厚感情,拍出了邻里间平凡中见不平凡的一面。女主角扮演者表现出后方家庭主妇的坚强和韧性,系战时英国人民的精神象征。影片获奥斯卡最佳影片等多项大奖。1950年的续集《蜡炬成灰泪始干》(The Miniver Story)远逊一筹。



  General #0
    ID : 0 (0x0)
    Complete name : 00062.m2ts
    Format : BDAV
    Format/Info : Blu-ray Video
    File size : 31.7 GiB
    Duration : 2h 13mn
    Overall bit rate mode : Variable
    Overall bit rate : 34.0 Mbps
    Maximum Overall bit rate : 48.0 Mbps
  Video #4113
    ID : 4113 (0x1011)
    Menu ID : 1 (0x1)
    Format : AVC
    Format/Info : Advanced Video Codec
    Format profile : High@L4.1
    Format settings, CABAC : Yes
    Format settings, ReFrames : 2 frames
    Codec ID : 27
    Duration : 2h 13mn
    Bit rate mode : Variable
    Width : 1 920 pixels
    Height : 1 080 pixels
    Display aspect ratio : 16:9
    Frame rate : 23.976 fps
    Color space : YUV
    Chroma subsampling : 4:2:0
    Bit depth : 8 bits
    Scan type : Progressive
  Audio #4352
    ID : 4352 (0x1100)
    Menu ID : 1 (0x1)
    Format : DTS
    Format/Info : Digital Theater Systems
    Format profile : MA / Core
    Mode : 16
    Format settings, Endianness : Big
    Muxing mode : Stream extension
    Codec ID : 134
    Duration : 2h 13mn
    Bit rate mode : Variable
    Bit rate : Unknown / 768 Kbps
    Channel(s) : 1 channel
    Channel positions : Front: C
    Sampling rate : 48.0 KHz
    Bit depth : 24 bits
    Compression mode : Lossless / Lossy
  Audio #4353
    ID : 4353 (0x1101)
    Menu ID : 1 (0x1)
    Format : AC-3
    Format/Info : Audio Coding 3
    Mode extension : CM (complete main)
    Format settings, Endianness : Big
    Codec ID : 129
    Duration : 2h 13mn
    Bit rate mode : Constant
    Bit rate : 192 Kbps
    Channel(s) : 1 channel
    Channel positions : Front: C
    Sampling rate : 48.0 KHz
    Bit depth : 16 bits
    Compression mode : Lossy
    Stream size : 184 MiB (1%)
  Audio #4354
    ID : 4354 (0x1102)
    Menu ID : 1 (0x1)
    Format : AC-3
    Format/Info : Audio Coding 3
    Mode extension : CM (complete main)
    Format settings, Endianness : Big
    Codec ID : 129
    Duration : 2h 13mn
    Bit rate mode : Constant
    Bit rate : 192 Kbps
    Channel(s) : 1 channel
    Channel positions : Front: C
    Sampling rate : 48.0 KHz
    Bit depth : 16 bits
    Compression mode : Lossy
    Stream size : 184 MiB (1%)
  Audio #4355
    ID : 4355 (0x1103)
    Menu ID : 1 (0x1)
    Format : AC-3
    Format/Info : Audio Coding 3
    Mode extension : CM (complete main)
    Format settings, Endianness : Big
    Codec ID : 129
    Duration : 2h 13mn
    Bit rate mode : Constant
    Bit rate : 192 Kbps
    Channel(s) : 1 channel
    Channel positions : Front: C
    Sampling rate : 48.0 KHz
    Bit depth : 16 bits
    Compression mode : Lossy
    Stream size : 184 MiB (1%)
  Audio #4356
    ID : 4356 (0x1104)
    Menu ID : 1 (0x1)
    Format : AC-3
    Format/Info : Audio Coding 3
    Mode extension : CM (complete main)
    Format settings, Endianness : Big
    Codec ID : 129
    Duration : 2h 13mn
    Bit rate mode : Constant
    Bit rate : 192 Kbps
    Channel(s) : 1 channel
    Channel positions : Front: C
    Sampling rate : 48.0 KHz
    Bit depth : 16 bits
    Compression mode : Lossy
    Stream size : 184 MiB (1%)
  Audio #4357
    ID : 4357 (0x1105)
    Menu ID : 1 (0x1)
    Format : AC-3
    Format/Info : Audio Coding 3
    Mode extension : CM (complete main)
    Format settings, Endianness : Big
    Codec ID : 129
    Duration : 2h 13mn
    Bit rate mode : Constant
    Bit rate : 192 Kbps
    Channel(s) : 1 channel
    Channel positions : Front: C
    Sampling rate : 48.0 KHz
    Bit depth : 16 bits
    Compression mode : Lossy
    Stream size : 184 MiB (1%)
  Text #4608
    ID : 4608 (0x1200)
    Menu ID : 1 (0x1)
    Format : PGS
    Codec ID : 144
  Text #4609
    ID : 4609 (0x1201)
    Menu ID : 1 (0x1)
    Format : PGS
    Codec ID : 144
  Text #4610
    ID : 4610 (0x1202)
    Menu ID : 1 (0x1)
    Format : PGS
    Codec ID : 144
  Text #4611
    ID : 4611 (0x1203)
    Menu ID : 1 (0x1)
    Format : PGS
    Codec ID : 144
  Text #4612
    ID : 4612 (0x1204)
    Menu ID : 1 (0x1)
    Format : PGS
    Codec ID : 144
  Text #4613
    ID : 4613 (0x1205)
    Menu ID : 1 (0x1)
    Format : PGS
    Codec ID : 144
  Text #4614
    ID : 4614 (0x1206)
    Menu ID : 1 (0x1)
    Format : PGS
    Codec ID : 144
  Text #4615
    ID : 4615 (0x1207)
    Menu ID : 1 (0x1)
    Format : PGS
    Codec ID : 144
  Text #4616
    ID : 4616 (0x1208)
    Menu ID : 1 (0x1)
    Format : PGS
    Codec ID : 144
  评论这张
 
阅读(134)| 评论(0)
推荐 转载

历史上的今天

在LOFTER的更多文章

评论

<#--最新日志,群博日志--> <#--推荐日志--> <#--引用记录--> <#--博主推荐--> <#--随机阅读--> <#--首页推荐--> <#--历史上的今天--> <#--被推荐日志--> <#--上一篇,下一篇--> <#-- 热度 --> <#-- 网易新闻广告 --> <#--右边模块结构--> <#--评论模块结构--> <#--引用模块结构--> <#--博主发起的投票-->
 
 
 
 
 
 
 
 
 
 
 
 
 
 

页脚

网易公司版权所有 ©1997-2017