注册 登录  
 加关注
   显示下一条  |  关闭
温馨提示!由于新浪微博认证机制调整,您的新浪微博帐号绑定已过期,请重新绑定!立即重新绑定新浪微博》  |  关闭

逆风飞翔的鸟

追逐风中散落的默契~

 
 
 

日志

 
 
关于我

曾经迷惑于一份距离 曾经感动于一个传说 …… 在仆仆风中 我伸手 抓住你我的缘分 …… “傻傻”的你 能闻到风中 你我的默契吗?!

网易考拉推荐

【动作】Killing.Season.2013.杀戮季节  

2013-08-19 20:05:05|  分类: 动作 |  标签: |举报 |字号 订阅

  下载LOFTER 我的照片书  |
【动作】Killing.Season.2013.杀戮季节 - 归鸿 - 逆风飞翔的鸟
◎译  名 杀戮季节/复仇人猎人(台)
◎片  名 Killing Season
◎年  代 2013
◎国  家 比利时/美国
◎类  别 动作/惊悚
◎语  言 英语
◎字  幕 中文
◎IMDB链接  http://www.imdb.com/title/tt1480295/
◎片  长 91 mins
◎导  演 马克·斯蒂文·约翰逊 Mark Steven Johnson
◎主  演 罗伯特·德尼罗 Robert De Niro .... Benjamin Ford
      约翰·特拉沃尔塔 John Travolta .... Emil Kovac
      米洛·文堤米利亚 Milo Ventimiglia .... Chris Ford
      Elizabeth Olin .... Sarah Ford
      Diana Lyubenova .... Elena
      Kalin Sarmenov .... Serbian
      Stefan Shterev .... Bar Customer


◎介  绍

  《恶灵战警》导演马克史帝芬强森最新力作,金球奖影帝约翰屈伏塔对决奥斯卡影帝劳勃狄尼洛,两大影帝大银幕同台飙戏,精彩可期!美国老兵福特(劳勃狄尼洛饰)隐居在深山中独自生活,突然有一天,一个来自欧洲的神秘猎人柯瓦(约翰屈伏塔饰)悄然出现,两人发展出一段充满变数的友谊。直到福特发现这位神秘访客其实是前来复仇的塞尔维亚士兵时,才意识到一场近身肉搏的对决即将来临。



  General #1
    ID : 1 (0x1)
    Complete name : 00000.m2ts
    Format : BDAV
    Format/Info : Blu-ray Video
    File size : 15.0 GiB
    Duration : 1h 30mn
    Overall bit rate mode : Variable
    Overall bit rate : 23.7 Mbps
    Maximum Overall bit rate : 35.5 Mbps
  Video #4113
    ID : 4113 (0x1011)
    Menu ID : 1 (0x1)
    Format : AVC
    Format/Info : Advanced Video Codec
    Format profile : High@L4.1
    Format settings, CABAC : Yes
    Format settings, ReFrames : 2 frames
    Codec ID : 27
    Duration : 1h 30mn
    Bit rate mode : Variable
    Bit rate : 22.1 Mbps
    Width : 1 920 pixels
    Height : 1 080 pixels
    Display aspect ratio : 16:9
    Frame rate : 23.976 fps
    Color space : YUV
    Chroma subsampling : 4:2:0
    Bit depth : 8 bits
    Scan type : Progressive
    Bits/(Pixel*Frame) : 0.444
    Stream size : 14.0 GiB (93%)
  Audio #4352
    ID : 4352 (0x1100)
    Menu ID : 1 (0x1)
    Format : TrueHD / AC-3
    Mode extension : CM (complete main)
    Format settings, Endianness : Big
    Muxing mode : Stream extension
    Codec ID : 131
    Duration : 1h 30mn
    Bit rate mode : Variable / Constant
    Bit rate : 640 Kbps
    Maximum bit rate : 2 772 Kbps
    Channel(s) : 6 channels
    Channel positions : Front: L C R, Side: L R, LFE
    Sampling rate : 48.0 KHz
    Bit depth : 16 bits
    Stream size : 415 MiB (3%)
    Language : English
  Text #4608
    ID : 4608 (0x1200)
    Menu ID : 1 (0x1)
    Format : PGS
    Codec ID : 144
    Delay relative to video : 12s 846ms
    Language : Chinese
  Text #4609
    ID : 4609 (0x1201)
    Menu ID : 1 (0x1)
    Format : PGS
    Codec ID : 144
    Delay relative to video : 12s 846ms
    Language : Chinese
  Text #4610
    ID : 4610 (0x1202)
    Menu ID : 1 (0x1)
    Format : PGS
    Codec ID : 144
    Delay relative to video : 12s 846ms
    Language : Chinese
  Text #4611
    ID : 4611 (0x1203)
    Menu ID : 1 (0x1)
    Format : PGS
    Codec ID : 144
    Delay relative to video : 12s 846ms
    Language : Chinese
  Text #4612
    ID : 4612 (0x1204)
    Menu ID : 1 (0x1)
    Format : PGS
    Codec ID : 144
    Language : English
  Text #4613
    ID : 4613 (0x1205)
    Menu ID : 1 (0x1)
    Format : PGS
    Codec ID : 144
    Delay relative to video : 12s 721ms
    Language : Spanish
  评论这张
 
阅读(104)| 评论(0)
推荐 转载

历史上的今天

在LOFTER的更多文章

评论

<#--最新日志,群博日志--> <#--推荐日志--> <#--引用记录--> <#--博主推荐--> <#--随机阅读--> <#--首页推荐--> <#--历史上的今天--> <#--被推荐日志--> <#--上一篇,下一篇--> <#-- 热度 --> <#-- 网易新闻广告 --> <#--右边模块结构--> <#--评论模块结构--> <#--引用模块结构--> <#--博主发起的投票-->
 
 
 
 
 
 
 
 
 
 
 
 
 
 

页脚

网易公司版权所有 ©1997-2017