注册 登录  
 加关注
   显示下一条  |  关闭
温馨提示!由于新浪微博认证机制调整,您的新浪微博帐号绑定已过期,请重新绑定!立即重新绑定新浪微博》  |  关闭

逆风飞翔的鸟

追逐风中散落的默契~

 
 
 

日志

 
 
关于我

曾经迷惑于一份距离 曾经感动于一个传说 …… 在仆仆风中 我伸手 抓住你我的缘分 …… “傻傻”的你 能闻到风中 你我的默契吗?!

网易考拉推荐

【亚洲】Love.for.Beginners.2012.今天开始恋爱吧  

2013-08-18 23:52:41|  分类: 亚洲 |  标签: |举报 |字号 订阅

  下载LOFTER 我的照片书  |
【亚洲】Love.for.Beginners.2012.今天开始恋爱吧 - 归鸿 - 逆风飞翔的鸟
◎译  名 今天开始恋爱吧
◎片  名 今日、恋をはじめます/Ky?, koi o hajimemasu
◎别  名 Love for Beginners
◎年  代 2012
◎国  家 日本
◎类  别 爱情
◎语  言 日语
◎IMDB链接  http://www.imdb.com/title/tt2118667/
◎片  长 121 Mins
◎导  演 古泽健 Takeshi Furusawa
◎主  演 武井咲 Emi Takei  ....日野椿 Tsubaki hibino
      松坂桃李 Tori Matsuzaka  ....京汰 Kyota tsubaki
      木村文乃 Fumino Kimura
      高梨临 Rin Takanashi
      青柳翔 Sho Aoyagi
      新川优爱 Yua ShinkawaT?ko Koy?
      长谷川初范 Hatsunori Hasegawa
      山崎贤人 Kento Yamazaki
      麻生祐未 Yumi Asou
      村上弘明 Hiroaki Murakami
      藤原令子 Reiko FujiwaraErina Dawkins
      上远野太洸 Taikou Katoono
      高冈早纪 Saki Takaoka


◎简  介 

  某座高中迎来了新的学生,虽然有着美丽容颜却土了土气的女孩日比野椿(武井咲 饰),在开学典礼当天竟然被入学成绩第一名的帅哥椿京汰(松坂桃李 饰)夺去初吻。以此为开端,京汰将日比野当作捉弄的对象,乐此不疲。虽然讨厌这个英俊帅气却举止轻薄的男孩,可是日比野内心深处却悄悄发生着转变。古板、传统的女孩情窦初开,些许品尝到青春和初恋的甜蜜。与此同时,京汰对日比野的情感也正发生着变化。在那个看似无比浪漫的情人节夜晚,抬头望见繁星的天文台上,日比野鼓起勇气向京汰告白,谁知他们的关系竟急转直下…

  本片根据漫画家水波风南的同名原作改编。



  General #1
    ID : 1 (0x1)
    Complete name : 00000.m2ts
    Format : BDAV
    Format/Info : Blu-ray Video
    File size : 37.2 GiB
    Duration : 2h 0mn
    Overall bit rate mode : Variable
    Overall bit rate : 44.0 Mbps
    Maximum Overall bit rate : 35.5 Mbps
  Video #4113
    ID : 4113 (0x1011)
    Menu ID : 1 (0x1)
    Format : AVC
    Format/Info : Advanced Video Codec
    Format profile : High@L4.1
    Format settings, CABAC : Yes
    Format settings, ReFrames : 2 frames
    Codec ID : 27
    Duration : 2h 0mn
    Bit rate mode : Variable
    Bit rate : 41.6 Mbps
    Width : 1 920 pixels
    Height : 1 080 pixels
    Display aspect ratio : 16:9
    Frame rate : 23.976 fps
    Color space : YUV
    Chroma subsampling : 4:2:0
    Bit depth : 8 bits
    Scan type : Progressive
    Bits/(Pixel*Frame) : 0.837
    Stream size : 35.2 GiB (95%)
  Audio #4352
    ID : 4352 (0x1100)
    Menu ID : 1 (0x1)
    Format : TrueHD / AC-3
    Mode extension : CM (complete main)
    Format settings, Endianness : Big
    Muxing mode : Stream extension
    Codec ID : 131
    Duration : 2h 0mn
    Bit rate mode : Variable / Constant
    Bit rate : 640 Kbps
    Maximum bit rate : 4 302 Kbps
    Channel(s) : 6 channels
    Channel positions : Front: L C R, Side: L R, LFE
    Sampling rate : 48.0 KHz
    Bit depth : 16 bits
    Stream size : 554 MiB (1%)
    Language : Japanese
  Text #4608
    ID : 4608 (0x1200)
    Menu ID : 1 (0x1)
    Format : PGS
    Codec ID : 144
    Language : Chinese
  Text #4609
    ID : 4609 (0x1201)
    Menu ID : 1 (0x1)
    Format : PGS
    Codec ID : 144
    Language : Chinese
  Text #4610
    ID : 4610 (0x1202)
    Menu ID : 1 (0x1)
    Format : PGS
    Codec ID : 144
    Language : Japanese
  评论这张
 
阅读(70)| 评论(0)
推荐 转载

历史上的今天

在LOFTER的更多文章

评论

<#--最新日志,群博日志--> <#--推荐日志--> <#--引用记录--> <#--博主推荐--> <#--随机阅读--> <#--首页推荐--> <#--历史上的今天--> <#--被推荐日志--> <#--上一篇,下一篇--> <#-- 热度 --> <#-- 网易新闻广告 --> <#--右边模块结构--> <#--评论模块结构--> <#--引用模块结构--> <#--博主发起的投票-->
 
 
 
 
 
 
 
 
 
 
 
 
 
 

页脚

网易公司版权所有 ©1997-2017