注册 登录  
 加关注
   显示下一条  |  关闭
温馨提示!由于新浪微博认证机制调整,您的新浪微博帐号绑定已过期,请重新绑定!立即重新绑定新浪微博》  |  关闭

逆风飞翔的鸟

追逐风中散落的默契~

 
 
 

日志

 
 
关于我

曾经迷惑于一份距离 曾经感动于一个传说 …… 在仆仆风中 我伸手 抓住你我的缘分 …… “傻傻”的你 能闻到风中 你我的默契吗?!

网易考拉推荐

【动作】Jubal.1956.远走高飞  

2013-07-28 14:03:15|  分类: 动作 |  标签: |举报 |字号 订阅

  下载LOFTER 我的照片书  |
【动作】Jubal.1956.远走高飞 - 归鸿 - 逆风飞翔的鸟
【影片原名】Jubal
【中文译名】远走高飞/侠骨游龙
【出品公司】哥伦比亚影业公司
【出品年代】1956
【上映日期】1956-04-06(美国)
【国  家】美国
【类  别】西部
【IMDB链接】http://www.imdb.com/title/tt0048233/
【对白语言】英语
【影片长度】100 分钟
【导  演】德尔默·戴夫斯 Delmer Daves
【主  演】格伦·福特 Glenn Ford  ....Jubal Troop
      欧内斯特·博格宁 Ernest Borgnine  ....Shep Horgan
      罗德·斯泰格尔 Rod Steiger  ....'Pinky' Pinkum
      瓦莱莉·弗林奇 Valerie French  ....Mae Horgan
      Felicia Farr  ....Naomi Hoktor
      Basil Ruysdael  ....Shem Hoktor
      小诺亚·比瑞 Noah Beery Jr.  ....Sam, Horgan Rider
      查尔斯·布朗森 Charles Bronson  ....Reb Haislipp
      John Dierkes  ....Carson, Horgan Rider
      杰克·伊莱姆 Jack Elam  ....McCoy, Bar 8 Rider
      Robert Burton  ....Doctor Grant
      John L. Cason  ....Ranch Owner (uncredited)
      Michael Daves  ....One of the Tolliver Boys (uncredited)
      Juney Ellis  ....Charity Hoktor (uncredited)
      Don Harvey  ....Jim Tolliver (uncredited)
      Robert 'Buzz' Henry  ....One of the Tolliver Boys (uncredited)
      Larry Hudson  ....Bayne (uncredited)
      Robert Knapp  ....Jake Slavin (uncredited)
      Ann Kunde  ....Bit Part (uncredited)
      William Rhinehart  ....Matt (uncredited)
      Guy Wilkerson  ....Cookie (uncredited)


【内容简介】

  本片是一部内容充实而富有趣味性的西部片,对情欲的描写极为细致,导演德尔默.戴夫对人物的处理也比较细腻,片中罗史泰格饰演一名专门挑拨离间的小人,演得很出色。主要描写一名流浪汉得到牧场主的收容,而牧场主的妻子则爱上了他,后来流浪汉在一次冲突中误杀牧场主,被迫四处逃亡……



  General #1
    ID : 1 (0x1)
    Complete name : 00000.m2ts
    Format : BDAV
    Format/Info : Blu-ray Video
    File size : 20.3 GiB
    Duration : 1h 41mn
    Overall bit rate mode : Variable
    Overall bit rate : 28.7 Mbps
    Maximum Overall bit rate : 35.5 Mbps
  Video #4113
    ID : 4113 (0x1011)
    Menu ID : 1 (0x1)
    Format : AVC
    Format/Info : Advanced Video Codec
    Format profile : High@L4.1
    Format settings, CABAC : Yes
    Format settings, ReFrames : 4 frames
    Codec ID : 27
    Duration : 1h 41mn
    Bit rate mode : Variable
    Bit rate : 25.2 Mbps
    Maximum bit rate : 37.0 Mbps
    Width : 1 920 pixels
    Height : 1 080 pixels
    Display aspect ratio : 16:9
    Frame rate : 23.976 fps
    Color space : YUV
    Chroma subsampling : 4:2:0
    Bit depth : 8 bits
    Scan type : Progressive
    Bits/(Pixel*Frame) : 0.508
    Stream size : 17.9 GiB (88%)
  Audio #4352
    ID : 4352 (0x1100)
    Menu ID : 1 (0x1)
    Format : PCM
    Format settings, Endianness : Big
    Format settings, Sign : Signed
    Muxing mode : Blu-ray
    Codec ID : 128
    Duration : 1h 41mn
    Bit rate mode : Constant
    Bit rate : 2 304 Kbps
    Channel(s) : 2 channels
    Channel positions : Front: L R
    Sampling rate : 48.0 KHz
    Bit depth : 24 bits
    Stream size : 1.63 GiB (8%)
    Language : English
  Text #4608
    ID : 4608 (0x1200)
    Menu ID : 1 (0x1)
    Format : PGS
    Codec ID : 144
    Delay relative to video : 24s 900ms
    Language : Chinese
  Text #4609
    ID : 4609 (0x1201)
    Menu ID : 1 (0x1)
    Format : PGS
    Codec ID : 144
    Delay relative to video : 24s 900ms
    Language : Chinese
  Text #4610
    ID : 4610 (0x1202)
    Menu ID : 1 (0x1)
    Format : PGS
    Codec ID : 144
    Language : English
  评论这张
 
阅读(102)| 评论(0)
推荐 转载

历史上的今天

在LOFTER的更多文章

评论

<#--最新日志,群博日志--> <#--推荐日志--> <#--引用记录--> <#--博主推荐--> <#--随机阅读--> <#--首页推荐--> <#--历史上的今天--> <#--被推荐日志--> <#--上一篇,下一篇--> <#-- 热度 --> <#-- 网易新闻广告 --> <#--右边模块结构--> <#--评论模块结构--> <#--引用模块结构--> <#--博主发起的投票-->
 
 
 
 
 
 
 
 
 
 
 
 
 
 

页脚

网易公司版权所有 ©1997-2017