注册 登录  
 加关注
   显示下一条  |  关闭
温馨提示!由于新浪微博认证机制调整,您的新浪微博帐号绑定已过期,请重新绑定!立即重新绑定新浪微博》  |  关闭

逆风飞翔的鸟

追逐风中散落的默契~

 
 
 

日志

 
 
关于我

曾经迷惑于一份距离 曾经感动于一个传说 …… 在仆仆风中 我伸手 抓住你我的缘分 …… “傻傻”的你 能闻到风中 你我的默契吗?!

网易考拉推荐

【动作】Assault.on.Wall.Street.2013.入侵华尔街  

2013-07-28 11:34:37|  分类: 动作 |  标签: |举报 |字号 订阅

  下载LOFTER 我的照片书  |
【动作】Assault.on.Wall.Street.2013.入侵华尔街 - 归鸿 - 逆风飞翔的鸟
◎译  名 入侵华尔街
◎片  名 Assault on Wall Street
◎年  代 2013
◎国  家 加拿大
◎类  别 动作/犯罪/惊悚/剧情
◎语  言 英语
◎IMDB链接  http://www.imdb.com/title/tt2368553/
◎片  长 1:38:39 (h:m:s)
◎导  演 乌维·鲍尔 Uwe Boll
◎主  演 多米尼克·珀塞尔 Dominic Purcell  ....Jim
      艾琳·卡普拉克 Erin Karpluk
      爱德华·福隆 Edward Furlong
      约翰·赫德 John Heard  ....Jeremy Stancroft
      凯斯·大卫 Keith David  ....Freddy
      迈克尔·帕尔 Michael Paré  ....Frank
      Lochlyn Munro  ....Robert
      泰伦·莱斯托 Tyron Leitso  ....Spalding Smith
      麦克·道帕德 Mike Dopud  ....Tom Allgard
      Barclay Hope  ....Ian Marwood
      Heather Feeney  ....Mary Jean
      埃里克·罗伯茨 Eric Roberts
      Michaela Mann  ....Myra
      Maurice Cherrie  ....Nate
      克林特·霍华德 Clint Howard  ....Chuck


◎简  介 

  吉姆是一个普通纽约人过着平静的生活,有着一个高薪水的工作和幸福的家庭。突然间,一切都变了,经济崩溃导致吉姆失去所拥有一切。在充满愤怒下,吉姆选择极端的报复以夺回他以前失去的……



  General #1
    ID : 1 (0x1)
    Complete name : 00000.m2ts
    Format : BDAV
    Format/Info : Blu-ray Video
    File size : 15.6 GiB
    Duration : 1h 38mn
    Overall bit rate mode : Variable
    Overall bit rate : 22.5 Mbps
    Maximum Overall bit rate : 35.5 Mbps
  Video #4113
    ID : 4113 (0x1011)
    Menu ID : 1 (0x1)
    Format : AVC
    Format/Info : Advanced Video Codec
    Format profile : High@L4.1
    Format settings, CABAC : Yes
    Format settings, ReFrames : 4 frames
    Codec ID : 27
    Duration : 1h 38mn
    Bit rate mode : Variable
    Bit rate : 21.2 Mbps
    Maximum bit rate : 35.0 Mbps
    Width : 1 920 pixels
    Height : 1 080 pixels
    Display aspect ratio : 16:9
    Frame rate : 23.976 fps
    Standard : NTSC
    Color space : YUV
    Chroma subsampling : 4:2:0
    Bit depth : 8 bits
    Scan type : Progressive
    Bits/(Pixel*Frame) : 0.426
    Stream size : 14.6 GiB (94%)
    Color primaries : BT.709
    Transfer characteristics : BT.709
    Matrix coefficients : BT.709
  Audio #4352
    ID : 4352 (0x1100)
    Menu ID : 1 (0x1)
    Format : AC-3
    Format/Info : Audio Coding 3
    Mode extension : CM (complete main)
    Format settings, Endianness : Big
    Codec ID : 129
    Duration : 1h 38mn
    Bit rate mode : Constant
    Bit rate : 448 Kbps
    Channel(s) : 6 channels
    Channel positions : Front: L C R, Side: L R, LFE
    Sampling rate : 48.0 KHz
    Bit depth : 16 bits
    Compression mode : Lossy
    Stream size : 317 MiB (2%)
    Language : English
  Text #4608
    ID : 4608 (0x1200)
    Menu ID : 1 (0x1)
    Format : PGS
    Codec ID : 144
    Language : Chinese
  Text #4609
    ID : 4609 (0x1201)
    Menu ID : 1 (0x1)
    Format : PGS
    Codec ID : 144
    Language : Chinese
  评论这张
 
阅读(64)| 评论(0)
推荐 转载

历史上的今天

在LOFTER的更多文章

评论

<#--最新日志,群博日志--> <#--推荐日志--> <#--引用记录--> <#--博主推荐--> <#--随机阅读--> <#--首页推荐--> <#--历史上的今天--> <#--被推荐日志--> <#--上一篇,下一篇--> <#-- 热度 --> <#-- 网易新闻广告 --> <#--右边模块结构--> <#--评论模块结构--> <#--引用模块结构--> <#--博主发起的投票-->
 
 
 
 
 
 
 
 
 
 
 
 
 
 

页脚

网易公司版权所有 ©1997-2017