注册 登录  
 加关注
   显示下一条  |  关闭
温馨提示!由于新浪微博认证机制调整,您的新浪微博帐号绑定已过期,请重新绑定!立即重新绑定新浪微博》  |  关闭

逆风飞翔的鸟

追逐风中散落的默契~

 
 
 

日志

 
 
关于我

曾经迷惑于一份距离 曾经感动于一个传说 …… 在仆仆风中 我伸手 抓住你我的缘分 …… “傻傻”的你 能闻到风中 你我的默契吗?!

网易考拉推荐

【亚洲】Saving.General.Yang.2013.忠烈杨家将  

2013-07-01 17:22:29|  分类: 亚洲 |  标签: |举报 |字号 订阅

  下载LOFTER 我的照片书  |
【亚洲】Saving.General.Yang.2013.忠烈杨家将 - 归鸿 - 逆风飞翔的鸟
◎片  名 忠烈杨家将
◎译  名 Saving General Yang
◎别  名 一门忠烈杨家将/杨家将
◎年  代 2013
◎上映日期 2013-04-04(中国大陆/香港)
◎国家地区 中国大陆/香港
◎类  别 战争/古装
◎语  言 汉语普通话/粤语
◎字  幕 中文/英文
◎IMDB链接  http://www.imdb.com/title/tt2072220/
◎片  长 103分钟
◎导  演 于仁泰
◎编  剧 黄子桓 / 刘诗嘉 / 于仁泰
◎主  演 郑少秋 / 徐帆 / 郑伊健 / 于波 / 周渝民 / 李晨 / 林峰
      吴尊 / 付辛博 / 邵兵 / 梁家仁 / 安以轩 / 李倩
      

◎简  介

    北宋年间,辽国兵马在耶律原(邵兵 饰)的率领下大举入侵中原,当今圣上着杨业(郑少秋 饰)和潘仁美(梁家仁 饰)两位重臣出兵抗辽。谁知潘仁美公报私仇,于金沙滩一役临阵撤兵,致令杨业陷入重围,困于两狼山城。杨家有子七人,依次为:延平(郑伊健 饰)、延定(于波 饰)、延光(周渝民 饰)、延辉(李晨 饰)、延德(林峰 饰)、延昭(吴尊 饰)和延嗣(付辛博 饰)。虽然前路凶多吉少,但为了营救父亲杨家七人依旧冒险出征。然而此一战凶险非常,一方面耶律原势要报当年杀父之仇,屠尽杨家父子;另一方面潘仁美作壁上观,意欲置杨家于死地而后快。

  苍凉两狼山,一曲忠义悲歌流传千古……



  General #1
    ID : 1 (0x1)
    Complete name : 00000.m2ts
    Format : BDAV
    Format/Info : Blu-ray Video
    File size : 15.6 GiB
    Duration : 1h 41mn
    Overall bit rate mode : Variable
    Overall bit rate : 21.9 Mbps
    Maximum Overall bit rate : 35.5 Mbps
  Video #4113
    ID : 4113 (0x1011)
    Menu ID : 1 (0x1)
    Format : AVC
    Format/Info : Advanced Video Codec
    Format profile : High@L4.1
    Format settings, CABAC : Yes
    Format settings, ReFrames : 4 frames
    Codec ID : 27
    Duration : 1h 41mn
    Bit rate mode : Variable
    Bit rate : 19.7 Mbps
    Maximum bit rate : 22.0 Mbps
    Width : 1 920 pixels
    Height : 1 080 pixels
    Display aspect ratio : 16:9
    Frame rate : 24.000 fps
    Standard : NTSC
    Color space : YUV
    Chroma subsampling : 4:2:0
    Bit depth : 8 bits
    Scan type : Progressive
    Bits/(Pixel*Frame) : 0.396
    Stream size : 14.0 GiB (90%)
    Color primaries : BT.709
    Transfer characteristics : BT.709
    Matrix coefficients : BT.709
  Audio #4352
    ID : 4352 (0x1100)
    Menu ID : 1 (0x1)
    Format : TrueHD / AC-3
    Mode extension : CM (complete main)
    Format settings, Endianness : Big
    Muxing mode : Stream extension
    Codec ID : 131
    Duration : 1h 41mn
    Bit rate mode : Variable / Constant
    Bit rate : 640 Kbps
    Maximum bit rate : 5 970 Kbps
    Channel(s) : 8 channels / 6 channels
    Channel positions : Front: L C R, Side: L R, Back: L R, LFE / Front: L C R, Side: L R, LFE
    Sampling rate : 96.0 KHz / 48.0 KHz
    Bit depth : 16 bits
    Delay relative to video : 167ms
    Stream size : 466 MiB (3%)
    Language : Chinese
  Audio #4353
    ID : 4353 (0x1101)
    Menu ID : 1 (0x1)
    Format : AC-3
    Format/Info : Audio Coding 3
    Mode extension : CM (complete main)
    Format settings, Endianness : Big
    Codec ID : 129
    Duration : 1h 41mn
    Bit rate mode : Constant
    Bit rate : 640 Kbps
    Channel(s) : 6 channels
    Channel positions : Front: L C R, Side: L R, LFE
    Sampling rate : 48.0 KHz
    Bit depth : 16 bits
    Compression mode : Lossy
    Stream size : 466 MiB (3%)
    Language : Chinese
  Text #4608
    ID : 4608 (0x1200)
    Menu ID : 1 (0x1)
    Format : PGS
    Codec ID : 144
    Delay relative to video : 26s 458ms
    Language : Chinese
  Text #4609
    ID : 4609 (0x1201)
    Menu ID : 1 (0x1)
    Format : PGS
    Codec ID : 144
    Delay relative to video : 26s 458ms
    Language : Chinese
  Text #4610
    ID : 4610 (0x1202)
    Menu ID : 1 (0x1)
    Format : PGS
    Codec ID : 144
    Delay relative to video : 26s 458ms
    Language : English
  评论这张
 
阅读(126)| 评论(0)
推荐 转载

历史上的今天

在LOFTER的更多文章

评论

<#--最新日志,群博日志--> <#--推荐日志--> <#--引用记录--> <#--博主推荐--> <#--随机阅读--> <#--首页推荐--> <#--历史上的今天--> <#--被推荐日志--> <#--上一篇,下一篇--> <#-- 热度 --> <#-- 网易新闻广告 --> <#--右边模块结构--> <#--评论模块结构--> <#--引用模块结构--> <#--博主发起的投票-->
 
 
 
 
 
 
 
 
 
 
 
 
 
 

页脚

网易公司版权所有 ©1997-2017