注册 登录  
 加关注
   显示下一条  |  关闭
温馨提示!由于新浪微博认证机制调整,您的新浪微博帐号绑定已过期,请重新绑定!立即重新绑定新浪微博》  |  关闭

逆风飞翔的鸟

追逐风中散落的默契~

 
 
 

日志

 
 
关于我

曾经迷惑于一份距离 曾经感动于一个传说 …… 在仆仆风中 我伸手 抓住你我的缘分 …… “傻傻”的你 能闻到风中 你我的默契吗?!

网易考拉推荐

【亚洲】My.Sassy.Girl.2001.我的野蛮女友  

2013-07-01 17:01:31|  分类: 亚洲 |  标签: |举报 |字号 订阅

  下载LOFTER 我的照片书  |
【亚洲】My.Sassy.Girl.2001.我的野蛮女友 - 归鸿 - 逆风飞翔的鸟
【中文译名】我的野蛮女友/我的淘气女友
【影片原名】My Sassy Girl
【年  代】2001
【国家地区】韩国
【类  别】喜剧/剧情/爱情
【语  言】韩语
【IMDB】http://www.imdb.com/title/tt0293715
【片  长】123 分钟
【导  演】郭在容Jae-young Kwak
【主  演】车太贤 Cha Tae Hyun .....Kyun-woo
      全智贤 Jeon Ji Hyun .....The Girl
      金仁文 In-mun Kim .....Kyun-woo's father
      金太贤 Tae-hyeon Kim .....Kendo Trainee
      李武英 Mu-yeong Lee .....
      任豪 Im Ho .....A Man The Girl met as blind date
      郭在容 Jae-young Kwak .....Covered Cart Bar Customer
      Jin-hie Han .....The Girl's father
      Sook-hee Hyun .....The Girl's mother
      金一宇 Il-woo Kim .....Quintuplets
      Dong-won Seo .....Deserter
      Wok-suk Song .....Kyun-woo's mother
      梁金锡 Geum-Seok Yang .....Kyun-woo's aunt

      
【简  介】

  如果她打你,一定要装得很痛;如果真的很痛,那就要装得没事……

  “她”(全智贤饰)的外表清丽脱俗,是众男人一眼就会相中的理想女友。但她一开口却完全与外表是两回事,野蛮又霸道。

  第一次邂逅,Kyun-woo(牵牛,车太贤饰)一片好心救了因醉酒而差点掉下铁轨的她,还背着烂醉的她到宾馆投宿,而当Kyun-woo(牵牛)正在洗澡时,警察突然冲入他的房间,一丝不挂的他被带往警署……

  漂亮无比的她一但发飙就粗暴得令人无法招架。第二天“她”约Kyun-woo出来,盘问Kyun-woo一番后,她又再度喝醉,Kyun-woo只好再次带她回旅馆过夜。于是如此,两人就开始了奇妙的关系。

  Kyun-woo希望改变她的行为,但每次结果却都出乎意料!~!!

  当她想知道河水有多深时,就把Kyun-woo推到河里去,直到他快要灭顶时才救他上来……

  在咖啡店时她问Kyun-woo要喝甚么,答了可乐后她却叫侍应来两杯咖啡……
 
  深夜带她到游乐场想给她一个生日的惊喜时,却遇上逃兵而成为被挟持的人质……

  两人在公园里散步,她的高跟鞋磨脚,便向Kyun-woo提出换鞋子穿的要求,要Kyun-woo穿上她的高跟鞋在公园里跑步……

  而当Kyun-woo知道她原来是在前次恋爱受到的打击后,决心要治疗她的伤痕。从此,他就犯贱地在挨打受骂的日子中享受恋爱的快乐。男士们看了不禁佩服得五体投地,女士们看了不禁羡慕得感动流泪。

  你是否相信无论是分手,或是在一起,都是上天注定的呢?注定在一起的,就算是分开了,最后都会相聚。



  General #1
    ID : 1 (0x1)
    Complete name : 00000.m2ts
    Format : BDAV
    Format/Info : Blu-ray Video
    File size : 34.0 GiB
    Duration : 2h 3mn
    Overall bit rate mode : Variable
    Overall bit rate : 39.3 Mbps
    Maximum Overall bit rate : 35.5 Mbps
  Video #4113
    ID : 4113 (0x1011)
    Menu ID : 1 (0x1)
    Format : AVC
    Format/Info : Advanced Video Codec
    Format profile : High@L4.1
    Format settings, CABAC : Yes
    Format settings, ReFrames : 4 frames
    Codec ID : 27
    Duration : 2h 3mn
    Bit rate mode : Variable
    Maximum bit rate : 39.0 Mbps
    Width : 1 920 pixels
    Height : 1 080 pixels
    Display aspect ratio : 16:9
    Frame rate : 23.976 fps
    Color space : YUV
    Chroma subsampling : 4:2:0
    Bit depth : 8 bits
    Scan type : Progressive
  Audio #4352
    ID : 4352 (0x1100)
    Menu ID : 1 (0x1)
    Format : DTS
    Format/Info : Digital Theater Systems
    Format profile : MA / Core
    Mode : 16
    Format settings, Endianness : Big
    Muxing mode : Stream extension
    Codec ID : 134
    Duration : 2h 3mn
    Bit rate mode : Variable
    Bit rate : Unknown / 1 509 Kbps
    Channel(s) : 6 channels
    Channel positions : Front: L C R, Side: L R, LFE
    Sampling rate : 48.0 KHz
    Bit depth : 16 bits
    Compression mode : Lossless / Lossy
    Language : Korean
  Audio #4353
    ID : 4353 (0x1101)
    Menu ID : 1 (0x1)
    Format : DTS
    Format/Info : Digital Theater Systems
    Mode : 16
    Format settings, Endianness : Big
    Codec ID : 130
    Duration : 2h 3mn
    Bit rate mode : Constant
    Bit rate : 755 Kbps
    Channel(s) : 6 channels
    Channel positions : Front: L C R, Side: L R, LFE
    Sampling rate : 48.0 KHz
    Bit depth : 24 bits
    Compression mode : Lossy
    Stream size : 667 MiB (2%)
    Language : Chinese
  Audio #4354
    ID : 4354 (0x1102)
    Menu ID : 1 (0x1)
    Format : AC-3
    Format/Info : Audio Coding 3
    Mode extension : CM (complete main)
    Format settings, Endianness : Big
    Codec ID : 129
    Duration : 2h 3mn
    Bit rate mode : Constant
    Bit rate : 384 Kbps
    Channel(s) : 6 channels
    Channel positions : Front: L C R, Side: L R, LFE
    Sampling rate : 48.0 KHz
    Bit depth : 16 bits
    Compression mode : Lossy
    Stream size : 339 MiB (1%)
    Language : Chinese
  Audio #4355
    ID : 4355 (0x1103)
    Menu ID : 1 (0x1)
    Format : AC-3
    Format/Info : Audio Coding 3
    Mode extension : CM (complete main)
    Format settings, Endianness : Big
    Codec ID : 129
    Duration : 2h 3mn
    Bit rate mode : Constant
    Bit rate : 256 Kbps
    Channel(s) : 2 channels
    Channel positions : Front: L R
    Sampling rate : 48.0 KHz
    Bit depth : 16 bits
    Compression mode : Lossy
    Stream size : 226 MiB (1%)
    Language : Chinese
  Text #4608
    ID : 4608 (0x1200)
    Menu ID : 1 (0x1)
    Format : PGS
    Codec ID : 144
    Language : Chinese
  Text #4609
    ID : 4609 (0x1201)
    Menu ID : 1 (0x1)
    Format : PGS
    Codec ID : 144
    Language : Chinese
  Text #4610
    ID : 4610 (0x1202)
    Menu ID : 1 (0x1)
    Format : PGS
    Codec ID : 144
    Language : Japanese
  Text #4611
    ID : 4611 (0x1203)
    Menu ID : 1 (0x1)
    Format : PGS
    Codec ID : 144
    Language : Japanese
  评论这张
 
阅读(92)| 评论(0)
推荐 转载

历史上的今天

在LOFTER的更多文章

评论

<#--最新日志,群博日志--> <#--推荐日志--> <#--引用记录--> <#--博主推荐--> <#--随机阅读--> <#--首页推荐--> <#--历史上的今天--> <#--被推荐日志--> <#--上一篇,下一篇--> <#-- 热度 --> <#-- 网易新闻广告 --> <#--右边模块结构--> <#--评论模块结构--> <#--引用模块结构--> <#--博主发起的投票-->
 
 
 
 
 
 
 
 
 
 
 
 
 
 

页脚

网易公司版权所有 ©1997-2017