注册 登录  
 加关注
   显示下一条  |  关闭
温馨提示!由于新浪微博认证机制调整,您的新浪微博帐号绑定已过期,请重新绑定!立即重新绑定新浪微博》  |  关闭

逆风飞翔的鸟

追逐风中散落的默契~

 
 
 

日志

 
 
关于我

曾经迷惑于一份距离 曾经感动于一个传说 …… 在仆仆风中 我伸手 抓住你我的缘分 …… “傻傻”的你 能闻到风中 你我的默契吗?!

网易考拉推荐

【亚洲】Love.is.Pyjamas.2012.男人如衣服  

2013-07-01 16:57:08|  分类: 亚洲 |  标签: |举报 |字号 订阅

  下载LOFTER 我的照片书  |
【亚洲】Love.is.Pyjamas.2012.男人如衣服 - 归鸿 - 逆风飞翔的鸟
◎英 文 名 Love is. . .Pyjamas
◎中 文 名  男人如衣服
◎首  映 2012-09-28(香港) / 2012-10-12(中国大陆)
◎国    家 香港 / 中国大陆
◎语  言 粤语 / 汉语普通话
◎IMDb链接 http://www.imdb.com/title/tt2255398
◎片  长 99 min
◎类  别 喜剧 / 爱情
◎导  演 谷德昭
◎编  剧  谷德昭
◎主  演 黄百鸣 / 郑中基 / 林峰 / 熊黛林 / 毛舜筠 / 吴千语 / 海清


◎剧  情

    相依为命的母女俩余春天(毛舜筠 饰)和任秋水(吴千语 饰)同为品牌内裤公司擎天的设计师,虽然她们的设计颇受欢迎,但是这家秋水舅舅Hugo(黄百鸣 饰)的公司在运营上出现了问题。关键时刻,他找到了4年前分手的女友——现为某时尚女装品牌的老板缪斯(海清 饰)。缪斯不计前嫌,同意帮Hugo摆脱困境,但条件是擎天必须设计一款名字为“男人如衣服”的女装。为了实现翻盘,Hugo在全体动员的同时,还请来了名设计师Jojo(熊黛林 饰)。Jojo傲慢的态度令秋水母女大为光火,她们提议和Jojo分别设计,最后由缪斯定夺。
  在这一过程中,秋水此前结识的临时演员阿费(郑中基 饰)和伙伴奥文(林峰 饰)加入进来,令这场对决变得妙趣横生……



  General #1
    ID : 1 (0x1)
    Complete name : 00000.m2ts
    Format : BDAV
    Format/Info : Blu-ray Video
    File size : 19.2 GiB
    Duration : 1h 38mn
    Overall bit rate mode : Variable
    Overall bit rate : 28.0 Mbps
    Maximum Overall bit rate : 35.5 Mbps
  Video #4113
    ID : 4113 (0x1011)
    Menu ID : 1 (0x1)
    Format : AVC
    Format/Info : Advanced Video Codec
    Format profile : High@L4.1
    Format settings, CABAC : Yes
    Format settings, ReFrames : 4 frames
    Codec ID : 27
    Duration : 1h 38mn
    Bit rate mode : Variable
    Bit rate : 25.6 Mbps
    Maximum bit rate : 28.0 Mbps
    Width : 1 920 pixels
    Height : 1 080 pixels
    Display aspect ratio : 16:9
    Frame rate : 24.000 fps
    Standard : NTSC
    Color space : YUV
    Chroma subsampling : 4:2:0
    Bit depth : 8 bits
    Scan type : Progressive
    Bits/(Pixel*Frame) : 0.514
    Stream size : 17.6 GiB (91%)
    Color primaries : BT.709
    Transfer characteristics : BT.709
    Matrix coefficients : BT.709
  Audio #4352
    ID : 4352 (0x1100)
    Menu ID : 1 (0x1)
    Format : TrueHD / AC-3
    Mode extension : CM (complete main)
    Format settings, Endianness : Big
    Muxing mode : Stream extension
    Codec ID : 131
    Duration : 1h 38mn
    Bit rate mode : Variable / Constant
    Bit rate : 640 Kbps
    Maximum bit rate : 5 544 Kbps
    Channel(s) : 8 channels / 6 channels
    Channel positions : Front: L C R, Side: L R, Back: L R, LFE / Front: L C R, Side: L R, LFE
    Sampling rate : 96.0 KHz / 48.0 KHz
    Bit depth : 16 bits
    Stream size : 450 MiB (2%)
    Language : Chinese
  Audio #4353
    ID : 4353 (0x1101)
    Menu ID : 1 (0x1)
    Format : AC-3
    Format/Info : Audio Coding 3
    Mode extension : CM (complete main)
    Format settings, Endianness : Big
    Codec ID : 129
    Duration : 1h 38mn
    Bit rate mode : Constant
    Bit rate : 640 Kbps
    Channel(s) : 6 channels
    Channel positions : Front: L C R, Side: L R, LFE
    Sampling rate : 48.0 KHz
    Bit depth : 16 bits
    Compression mode : Lossy
    Stream size : 450 MiB (2%)
    Language : Chinese
  Text #4608
    ID : 4608 (0x1200)
    Menu ID : 1 (0x1)
    Format : PGS
    Codec ID : 144
    Language : Chinese
  Text #4609
    ID : 4609 (0x1201)
    Menu ID : 1 (0x1)
    Format : PGS
    Codec ID : 144
    Language : Chinese
  Text #4610
    ID : 4610 (0x1202)
    Menu ID : 1 (0x1)
    Format : PGS
    Codec ID : 144
    Language : English
  评论这张
 
阅读(112)| 评论(0)
推荐 转载

历史上的今天

评论

<#--最新日志,群博日志--> <#--推荐日志--> <#--引用记录--> <#--博主推荐--> <#--随机阅读--> <#--首页推荐--> <#--历史上的今天--> <#--被推荐日志--> <#--上一篇,下一篇--> <#-- 热度 --> <#-- 网易新闻广告 --> <#--右边模块结构--> <#--评论模块结构--> <#--引用模块结构--> <#--博主发起的投票-->
 
 
 
 
 
 
 
 
 
 
 
 
 
 

页脚

网易公司版权所有 ©1997-2017