注册 登录  
 加关注
   显示下一条  |  关闭
温馨提示!由于新浪微博认证机制调整,您的新浪微博帐号绑定已过期,请重新绑定!立即重新绑定新浪微博》  |  关闭

逆风飞翔的鸟

追逐风中散落的默契~

 
 
 

日志

 
 
关于我

曾经迷惑于一份距离 曾经感动于一个传说 …… 在仆仆风中 我伸手 抓住你我的缘分 …… “傻傻”的你 能闻到风中 你我的默契吗?!

网易考拉推荐

【亚洲】Lesson.Of.The.Evil.2012.恶之教典  

2013-07-01 16:49:39|  分类: 亚洲 |  标签: |举报 |字号 订阅

  下载LOFTER 我的照片书  |
【亚洲】Lesson.Of.The.Evil.2012.恶之教典 - 归鸿 - 逆风飞翔的鸟
◎译  名 恶之教典
◎片  名 Aku no ky?ten / Lesson of the Evil
◎年  代 2012
◎国  家 日本
◎类  别 惊悚
◎语  言 日语
◎导  演 三池崇史
◎主  演 伊藤英明
            二阶堂富美
            染谷将太
            浅香航大
            水野绘梨奈
            山田孝之
            平岳大
            吹越满

◎获奖记录

日本电影学院奖 Awards of the Japanese Academy 2013
最佳新人奖 二阶堂富美 染谷将太

◎简  介

    私立晨光学院町田高中,群体作弊事件严重,校园暴力引发胡搅蛮缠的家长与教师的连锁冲突,体育教师柴原彻郎(山田孝之 饰)和美术教师久米刚毅(平岳大 饰)的不端行为又令这一神圣职业蒙羞。在这片无序的混乱中,二年4班班主任莲实圣司(伊藤英明 饰)继续他那完美纯然的教师神话。举止优雅,谦和可亲,天使一般的外表下竟是一颗冷冰冰的恶魔之心。他潜心经营,布下一个又一个不易察觉的圈套,悄无声息抹除那些威胁他存在的人们。物理教师钓井(吹越满 饰)暗中调查莲实的过去和背景,并与他的学生圭介(染谷将太 饰)等人尝试揭穿莲实的真面目,此举全引来连番血腥杀戮。充满欢乐的校园祭前夜,血流成河…

    本片根据作家贵志祐介的同名原著改编。

◎幕后花絮

·因题材过于激进残酷,连原作者贵志祐介都认为《恶之教典》不太可能搬上银幕,最终该片在日本被定为R15(15岁以下不得观看)。

·BeeTV于2012年10月15日播放《恶之教典 序章》,总计4集,讲述了大屠杀一段时间莲实在学校内的一段黑暗故事。漫画家鸟山英司还于2012年5月连载了序章第0话。

·伊藤英明能够记住片中担任班主任的二年4班42人所有人的名字。

·町田高中(内部)的本体是坐落于三浦半岛的三崎高...




  General #1
    ID : 1 (0x1)
    Complete name : 00000.m2ts
    Format : BDAV
    Format/Info : Blu-ray Video
    File size : 20.8 GiB
    Duration : 2h 9mn
    Overall bit rate mode : Variable
    Overall bit rate : 23.1 Mbps
    Maximum Overall bit rate : 35.5 Mbps
  Video #4113
    ID : 4113 (0x1011)
    Menu ID : 1 (0x1)
    Format : AVC
    Format/Info : Advanced Video Codec
    Format profile : High@L4.1
    Format settings, CABAC : Yes
    Format settings, ReFrames : 4 frames
    Codec ID : 27
    Duration : 2h 9mn
    Bit rate mode : Variable
    Bit rate : 21.5 Mbps
    Maximum bit rate : 22.0 Mbps
    Width : 1 920 pixels
    Height : 1 080 pixels
    Display aspect ratio : 16:9
    Frame rate : 23.976 fps
    Standard : NTSC
    Color space : YUV
    Chroma subsampling : 4:2:0
    Bit depth : 8 bits
    Scan type : Progressive
    Bits/(Pixel*Frame) : 0.433
    Stream size : 19.4 GiB (93%)
    Color primaries : BT.709
    Transfer characteristics : BT.709
    Matrix coefficients : BT.709
  Audio #4352
    ID : 4352 (0x1100)
    Menu ID : 1 (0x1)
    Format : TrueHD / AC-3
    Mode extension : CM (complete main)
    Format settings, Endianness : Big
    Muxing mode : Stream extension
    Codec ID : 131
    Duration : 2h 9mn
    Bit rate mode : Variable / Constant
    Bit rate : 640 Kbps
    Maximum bit rate : 5 730 Kbps
    Channel(s) : 8 channels / 6 channels
    Channel positions : Front: L C R, Side: L R, Back: L R, LFE / Front: L C R, Side: L R, LFE
    Sampling rate : 96.0 KHz / 48.0 KHz
    Bit depth : 16 bits
    Stream size : 591 MiB (3%)
    Language : Japanese
  Text #4608
    ID : 4608 (0x1200)
    Menu ID : 1 (0x1)
    Format : PGS
    Codec ID : 144
    Language : Chinese
  Text #4609
    ID : 4609 (0x1201)
    Menu ID : 1 (0x1)
    Format : PGS
    Codec ID : 144
    Language : English
  评论这张
 
阅读(89)| 评论(0)
推荐 转载

历史上的今天

在LOFTER的更多文章

评论

<#--最新日志,群博日志--> <#--推荐日志--> <#--引用记录--> <#--博主推荐--> <#--随机阅读--> <#--首页推荐--> <#--历史上的今天--> <#--被推荐日志--> <#--上一篇,下一篇--> <#-- 热度 --> <#-- 网易新闻广告 --> <#--右边模块结构--> <#--评论模块结构--> <#--引用模块结构--> <#--博主发起的投票-->
 
 
 
 
 
 
 
 
 
 
 
 
 
 

页脚

网易公司版权所有 ©1997-2017