注册 登录  
 加关注
   显示下一条  |  关闭
温馨提示!由于新浪微博认证机制调整,您的新浪微博帐号绑定已过期,请重新绑定!立即重新绑定新浪微博》  |  关闭

逆风飞翔的鸟

追逐风中散落的默契~

 
 
 

日志

 
 
关于我

曾经迷惑于一份距离 曾经感动于一个传说 …… 在仆仆风中 我伸手 抓住你我的缘分 …… “傻傻”的你 能闻到风中 你我的默契吗?!

网易考拉推荐

【动作】The.Cowboys.1972.牛仔  

2013-05-09 08:10:50|  分类: 动作 |  标签: |举报 |字号 订阅

  下载LOFTER 我的照片书  |
【动作】The.Cowboys.1972.牛仔 - 归鸿 - 逆风飞翔的鸟
【译  名】牛仔/牛仔传奇
【片  名】The Cowboys
【年  代】1972
【国  家】美国
【类  别】西部
【语  言】英语
【IMDB链接】http://www.imdb.cn/title/tt0068421
【导  演】马克·雷戴尔 Mark Rydell
【主  演】约翰·韦恩 John Wayne  ....Wil Andersen
      Roscoe Lee Browne  ....Jedediah Nightlinger
      布鲁斯·邓恩 Bruce Dern  ....Long Hair (Asa Watts)
      Colleen Dewhurst科琳·杜赫斯特 Colleen Dewhurst  ....Mrs. Kate Collingwood
      Alfred Barker Jr.  ....Clyde 'Singing Fats' Potter
      Nicolas Beauvy  ....Dan/Four Eyes
      Steve Benedict  ....Steve
      Robert Carradine罗伯特·卡拉丁 Robert Carradine  ....Charles 'Slim' Honeycutt
      Norman Howell  ....Cowboy #1 (Weedy) (as Norman Howell Jr.)
      Stephen R. Hudis  ....Charlie Schwartz (as Stephen Hudis)
      Sean Kelly  ....Stuttering Bob Wilson
      A Martinez  ....Cimarron
      Clay O'Brien  ....Hardy Fimps
      Sam O'Brien  ....Jimmy Phillips
      Mike Pyeatt  ....Homer Weems


【剧情简介】 

  马克.瑞戴尔执导。描述一名老牛仔在人手缺乏的情形下,雇用了十一名小孩帮忙他运牛到四百里外出售。途中让一名求职不遂的青年怀恨将老牛仔打死,并抢走牛群。十一名小孩在黑人厨子的帮助下,实行以暴易暴将牛群抢回来,完成卖牛任务。本片构想不俗,但内容过份渲染丑恶和暴力,令人无法苟同,因此亦减弱了影片的可看性。不过本片的技术表现是不错的。



  General #1
    ID : 1 (0x1)
    Complete name : 00000.m2ts
    Format : BDAV
    Format/Info : Blu-ray Video
    File size : 18.7 GiB
    Duration : 2h 14mn
    Overall bit rate mode : Variable
    Overall bit rate : 19.9 Mbps
    Maximum Overall bit rate : 35.5 Mbps
  Video #4113
    ID : 4113 (0x1011)
    Menu ID : 1 (0x1)
    Format : VC-1
    Format profile : Advanced@L3
    Codec ID : 234
    Duration : 2h 14mn
    Bit rate : 18.4 Mbps
    Width : 1 920 pixels
    Height : 1 080 pixels
    Display aspect ratio : 16:9
    Frame rate : 23.976 fps
    Chroma subsampling : 4:2:0
    Bit depth : 8 bits
    Scan type : Progressive
    Compression mode : Lossy
    Bits/(Pixel*Frame) : 0.371
    Stream size : 17.3 GiB (93%)
  Audio #4352
    ID : 4352 (0x1100)
    Menu ID : 1 (0x1)
    Format : AC-3
    Format/Info : Audio Coding 3
    Mode extension : CM (complete main)
    Format settings, Endianness : Big
    Codec ID : 129
    Duration : 2h 14mn
    Bit rate mode : Constant
    Bit rate : 640 Kbps
    Channel(s) : 6 channels
    Channel positions : Front: L C R, Side: L R, LFE
    Sampling rate : 48.0 KHz
    Bit depth : 16 bits
    Compression mode : Lossy
    Stream size : 616 MiB (3%)
    Language : English
  Text #4608
    ID : 4608 (0x1200)
    Menu ID : 1 (0x1)
    Format : PGS
    Codec ID : 144
    Language : Chinese
  Text #4609
    ID : 4609 (0x1201)
    Menu ID : 1 (0x1)
    Format : PGS
    Codec ID : 144
    Language : Chinese
  Text #4610
    ID : 4610 (0x1202)
    Menu ID : 1 (0x1)
    Format : PGS
    Codec ID : 144
    Language : English
  Text #4611
    ID : 4611 (0x1203)
    Menu ID : 1 (0x1)
    Format : PGS
    Codec ID : 144
    Language : English
  Text #4612
    ID : 4612 (0x1204)
    Menu ID : 1 (0x1)
    Format : PGS
    Codec ID : 144
    Language : German
  Text #4613
    ID : 4613 (0x1205)
    Menu ID : 1 (0x1)
    Format : PGS
    Codec ID : 144
    Language : German
  Text #4614
    ID : 4614 (0x1206)
    Menu ID : 1 (0x1)
    Format : PGS
    Codec ID : 144
    Duration : 2h 14mn
    Delay relative to video : 2s 169ms
    Language : Italian
  Text #4615
    ID : 4615 (0x1207)
    Menu ID : 1 (0x1)
    Format : PGS
    Codec ID : 144
    Duration : 2h 14mn
    Delay relative to video : 2s 169ms
    Language : Italian
  Text #4616
    ID : 4616 (0x1208)
    Menu ID : 1 (0x1)
    Format : PGS
    Codec ID : 144
    Duration : 2h 14mn
    Delay relative to video : 2s 169ms
    Language : Spanish
  Text #4617
    ID : 4617 (0x1209)
    Menu ID : 1 (0x1)
    Format : PGS
    Codec ID : 144
    Duration : 2h 14mn
    Delay relative to video : 2s 169ms
    Language : Portuguese
  Text #4618
    ID : 4618 (0x120A)
    Menu ID : 1 (0x1)
    Format : PGS
    Codec ID : 144
    Language : Danish
  Text #4619
    ID : 4619 (0x120B)
    Menu ID : 1 (0x1)
    Format : PGS
    Codec ID : 144
    Duration : 2h 14mn
    Delay relative to video : 2s 169ms
    Language : Finnish
  Text #4620
    ID : 4620 (0x120C)
    Menu ID : 1 (0x1)
    Format : PGS
    Codec ID : 144
    Duration : 2h 14mn
    Delay relative to video : 2s 169ms
    Language : Norwegian
  Text #4621
    ID : 4621 (0x120D)
    Menu ID : 1 (0x1)
    Format : PGS
    Codec ID : 144
    Duration : 2h 14mn
    Delay relative to video : 2s 169ms
    Language : Swedish
  评论这张
 
阅读(141)| 评论(0)
推荐 转载

历史上的今天

在LOFTER的更多文章

评论

<#--最新日志,群博日志--> <#--推荐日志--> <#--引用记录--> <#--博主推荐--> <#--随机阅读--> <#--首页推荐--> <#--历史上的今天--> <#--被推荐日志--> <#--上一篇,下一篇--> <#-- 热度 --> <#-- 网易新闻广告 --> <#--右边模块结构--> <#--评论模块结构--> <#--引用模块结构--> <#--博主发起的投票-->
 
 
 
 
 
 
 
 
 
 
 
 
 
 

页脚

网易公司版权所有 ©1997-2017