注册 登录  
 加关注
   显示下一条  |  关闭
温馨提示!由于新浪微博认证机制调整,您的新浪微博帐号绑定已过期,请重新绑定!立即重新绑定新浪微博》  |  关闭

逆风飞翔的鸟

追逐风中散落的默契~

 
 
 

日志

 
 
关于我

曾经迷惑于一份距离 曾经感动于一个传说 …… 在仆仆风中 我伸手 抓住你我的缘分 …… “傻傻”的你 能闻到风中 你我的默契吗?!

网易考拉推荐

【动作】Pawn.2013.人质  

2013-05-09 07:48:22|  分类: 动作 |  标签: |举报 |字号 订阅

  下载LOFTER 我的照片书  |
【动作】Pawn.2013.人质 - 归鸿 - 逆风飞翔的鸟
◎译  名 人质
◎片  名 Pawn
◎年  代 2013
◎国  家 美国
◎类  别 犯罪/惊悚
◎语  言 英语
◎字  幕 中文
◎IMDB链接  http://www.imdb.com/title/tt1551630/
◎片  长 01h:28m:25s
◎导  演 大卫·A·阿姆斯特朗 David A. Armstrong
◎主  演 妮基·瑞德 Nikki Reed  ....Amanda
      肖恩·法瑞斯 Sean Faris  ....Nick
      雷·利奥塔 Ray Liotta  ....Man in the Suit
      福里斯特·惠特克 Forest Whitaker  ....Will
      马尔顿·索克斯 Marton Csokas  ....Lieutenant Barnes
      史蒂芬·朗 Stephen Lang  ....Charlie
      乔纳森·本内特 Jonathan Bennett  ....Aaron
      杰西卡·斯佐尔 Jessica Szohr  ....Bonnie
      迈克尔·切克利斯 Michael Chiklis  ....Derrick
      科曼 Common  ....Jeff Porter
      Jon Lee Brody  ....Sgt. Reyes
      Paul Jude Letersky  ....Sniper
      黛博拉·特维斯 Deborah Twiss  ....Mrs. Davenport
      马克思·比斯雷 Max Beesley  ....Billy
      Alex Ziwak  ....Arkady
      Gabriel Jarret  ....Swat team captain
      Jordan Belfi  ....Patrick
      Ronald Guttman  ....Yuri
      Jim Ford  ....Swat
      Greg Nutcher  ....Sniper
      Jay Ferraro  ....Channel 6 Cameraman
      Ashley Kirk  ....Savanah
      Adam Moryto  ....Jimmy
      Joslyn Stabile  ....Ella
      Cameron Denny  ....Nigel
      Rachel Konstantin  ....Hostage
      Pamela Burrus  ....News Reporter
      Peter Vouras  ....Det. Creedy
      Stephen Crain  ....Sgt. Matthews


◎简  介 

    一个小抢劫犯卷入一起紧张事件中成为了人质,而在此之前,三名枪手和一名暴徒正在一间小餐厅里相持不下。



  General #1
    ID : 1 (0x1)
    Complete name : 00000.m2ts
    Format : BDAV
    Format/Info : Blu-ray Video
    File size : 17.5 GiB
    Duration : 1h 28mn
    Overall bit rate mode : Variable
    Overall bit rate : 28.4 Mbps
    Maximum Overall bit rate : 35.5 Mbps
  Video #4113
    ID : 4113 (0x1011)
    Menu ID : 1 (0x1)
    Format : AVC
    Format/Info : Advanced Video Codec
    Format profile : High@L4.1
    Format settings, CABAC : Yes
    Format settings, ReFrames : 2 frames
    Codec ID : 27
    Duration : 1h 28mn
    Bit rate mode : Variable
    Bit rate : 26.6 Mbps
    Width : 1 920 pixels
    Height : 1 080 pixels
    Display aspect ratio : 16:9
    Frame rate : 23.976 fps
    Color space : YUV
    Chroma subsampling : 4:2:0
    Bit depth : 8 bits
    Scan type : Progressive
    Bits/(Pixel*Frame) : 0.535
    Stream size : 16.4 GiB (94%)
  Audio #4352
    ID : 4352 (0x1100)
    Menu ID : 1 (0x1)
    Format : TrueHD / AC-3
    Mode extension : CM (complete main)
    Format settings, Endianness : Big
    Muxing mode : Stream extension
    Codec ID : 131
    Duration : 1h 28mn
    Bit rate mode : Variable / Constant
    Bit rate : 640 Kbps
    Maximum bit rate : 4 335 Kbps
    Channel(s) : 6 channels
    Channel positions : Front: L C R, Side: L R, LFE
    Sampling rate : 48.0 KHz
    Bit depth : 16 bits
    Stream size : 405 MiB (2%)
    Language : English
  Text #4608
    ID : 4608 (0x1200)
    Menu ID : 1 (0x1)
    Format : PGS
    Codec ID : 144
    Language : Chinese
  Text #4609
    ID : 4609 (0x1201)
    Menu ID : 1 (0x1)
    Format : PGS
    Codec ID : 144
    Language : Chinese
  Text #4610
    ID : 4610 (0x1202)
    Menu ID : 1 (0x1)
    Format : PGS
    Codec ID : 144
    Language : English
  Text #4611
    ID : 4611 (0x1203)
    Menu ID : 1 (0x1)
    Format : PGS
    Codec ID : 144
    Language : Spanish
  评论这张
 
阅读(159)| 评论(0)
推荐 转载

历史上的今天

在LOFTER的更多文章

评论

<#--最新日志,群博日志--> <#--推荐日志--> <#--引用记录--> <#--博主推荐--> <#--随机阅读--> <#--首页推荐--> <#--历史上的今天--> <#--被推荐日志--> <#--上一篇,下一篇--> <#-- 热度 --> <#-- 网易新闻广告 --> <#--右边模块结构--> <#--评论模块结构--> <#--引用模块结构--> <#--博主发起的投票-->
 
 
 
 
 
 
 
 
 
 
 
 
 
 

页脚

网易公司版权所有 ©1997-2017