注册 登录  
 加关注
   显示下一条  |  关闭
温馨提示!由于新浪微博认证机制调整,您的新浪微博帐号绑定已过期,请重新绑定!立即重新绑定新浪微博》  |  关闭

逆风飞翔的鸟

追逐风中散落的默契~

 
 
 

日志

 
 
关于我

曾经迷惑于一份距离 曾经感动于一个传说 …… 在仆仆风中 我伸手 抓住你我的缘分 …… “傻傻”的你 能闻到风中 你我的默契吗?!

网易考拉推荐

【动画】The.Wolf.Children.Ame.and.Yuki.2012.狼之子雨与雪  

2013-05-07 15:14:34|  分类: 动画 |  标签: |举报 |字号 订阅

  下载LOFTER 我的照片书  |
【动画】The.Wolf.Children.Ame.and.Yuki.2012.狼之子雨与雪 - 归鸿 - 逆风飞翔的鸟
◎译   名 狼的孩子雨和雪/狼之子雨与雪/Okami kodomo no ame to yuki/The Wolf Children Ame and Yuki
◎片   名 おおかみこどもの雨と雪
◎年   代 2012
◎国   家 日本
◎类   别 剧情/动画/奇幻
◎IMDB 链接 http://www.imdb.com/title/tt2140203/
◎语   言 日语
◎字   幕 中文
◎片   长 117 mins 4 seconds
◎导   演 细田守 Mamoru Hosoda
◎主   演 宫崎葵 Aoi Miyazaki  ....花
       大泽隆夫 Takao Osawa  ....彼
       大野百花 Momoka Ohno  ....雪(幼年)
       加部亚门 Amon Kabe  ....雨(幼年)
       黑木华 Hana Kuroki  ....雪(少女)
       西井幸人 Yukito Nishii  ....雨(少年)
       林原惠美 Megumi Hayashibara  ....草平的母亲
       中村正 Tadashi Nakamura  ....细川
       大木民夫 Tamio ?ki  ....山冈
       片冈富枝 Tomie Kataoka
       平冈拓真 Takuma Hiraoka  ....草平
       染谷将太 Sh?ta Sometani  ....田边先生
       谷村美月 Mitsuki Tanimura  ....土肥的夫人
       麻生久美子 Kumiko Aso  ....堀田的夫人
       菅原文太 Bunta Sugawara  ....菲崎
       mon Kabe
       Momoka Ohno
       Mone Kamishiraishi  ....(voice)


◎简   介  

    主人公“花”是个普通的大学生,她与狼人相爱后生下了一对姐弟,取名“雨”和“雪”,一家四口在城市中过着平静温馨的生活。然而某日,狼人突然去世,花决定带着两个孩子搬去乡村……根据细田守的说法,三月发生的海啸也让他重新开始思考亲子之间的羁绊,他希望能通过本片塑造出“理想中的母亲形象”。

    孤身一人在这个世上行走的女大学生花(宫崎葵配音),在与命中注定的那个人(大泽隆夫配音)相识未久后便坠入爱河。不久后她得知,男友的真实身份竟然是一个狼人,可即便如此,花对恋人的情感也丝毫不曾动摇。二人相依相守,共同孕育出爱情的结晶,分别是在飘雪的日子里出生的女儿小雪,和在雨天来到人间的男孩小雨。雪活泼好动,对周遭世界充满好奇,雨则怯懦胆小,警觉纤弱,他们继承了父亲的狼人体质,可以随心所欲化身为狼。花和家人们严守着这个秘密,在喧嚣都市的一隅静悄悄地过着幸福的生活。

    直到某天,噩耗突然降临。父亲被死神夺去生命,悲痛欲绝的花暗下决心,无论将来孩子们选择何种身份(人或狼),也要好好抚养他们长大。为此,她带着孩子远离繁华却令人窒息的大都会,搬到景色秀丽、充满大自然气息的乡下居住。在当地的深山密林腹地,花选中了一栋有着上百年历史的古旧民房,雪马上便喜欢上了这个新家,而羞涩的雨则迟迟不能适应。可喜的是,人迹罕至的山林赋予孩子们极大的自由,姐弟俩在布满积雪的山中恣意奔跑,随意变换着人与狼的身姿,体会着前所未有的快乐。他们的妈妈一边注视着孩子跃动的身姿,一边用心修葺他们的新家。经过一番努力,了无生气的旧民房重新焕发生机,母子三人的新生活就此展开。

    但是生活的现状不得不令花眉头紧蹙。丈夫当初所留下的存款越来越少,为了节约开支,花尝试着自给自足。她从图书馆借来园艺农耕方面的书籍,学习农作。可是任凭她如何努力,秧苗还是一次次枯萎。为此,她向居住在村中的老爷爷韭崎(菅原文太饰)求教。以此为契机,村民们开始频繁造访花的家,庄稼也在韭崎爷爷的指导与呵护下茁壮成长。原本为了避人耳目搬入深山的母子三人,不知不觉得到了村民们无微不至的关照,花的心中涌起点点感激之情……


◎制作制作

    该作品的原作和编剧由曾成功执导过「穿越时空的少女」和「夏日大作战」的细田守亲自担当,人设贞本义行、编剧奥寺佐渡子均为与细田守共同制作过「穿越时空的少女」和「夏日大作战」两部作品的老同事,通过这两部作品,细田守不但获得了大量奖项,而且获得了广大动漫迷的认可。

    根据细田守的说法,三月发生的海啸也让他重新开始思考亲子之间的羁绊,他希望能通过本片塑造出“理想中的母亲形象”。

    《狼之子雨与雪》日前通过日本电视节目首次放出了实际影像(预告片)。大家可以看到雨与雪虽然是狼,却可以在人形和狼形之间自由的变化,不知道是一种表现手法还是故事设定即为如此。


◎幕后花絮

· 据说报纸上关于那些因各种原因无法进入幼儿园只能由家人照顾的儿童的报道,是细田守创作本片的契机。
· 影片山间的场景以富山县上市町的山林为蓝本。
· 作为周边的小说和漫画也相继发售,宫崎葵担任小说CD的朗读者。漫画则于2012年5月在角川书店的漫画月刊《Young Ace》上连载。
· 细田守当年在吉卜力工作室时一度被选为《哈尔的移动城堡》的导演,后来导筒仍交宫崎骏掌握。这段经历曾让他备受打击,几乎丧失了制作电影的动力。如今他凭借前两部作品的成功已被许多人称为"第二宫崎"。
· 在2012年6月18日的见面会上,宫崎葵与大泽隆夫共撑一把伞出场,会场内则应境地飘下了雪和雨。
· 在谈到首次合作的大泽隆夫时,宫崎葵称大泽给人印象非常和善,每天都带着好吃的录音现场,休息时便和孩子们吃东西玩耍。
· 菅原文太上一次担任声优是在宫崎吾朗的导演处女才作《地海战内》,距今有六年时间。此外,现实中他也和片中的老爷爷一样从事农耕工作。
· 因为正赶上农忙季傻,菅原文太缺席了影片的首映式。
· 在2012年7月16日的主题歌发布会上,宫崎葵被感人至深的歌曲打动,泪洒现场。
· 剧场版动画《狼的孩子雨和雪》上映于2012年7月,最终取得了票房超过42亿日元的好成绩,此前已获得每日映画动画映画赏、文化町媒体艺术节动画部门大赏、横滨映画祭审查员特别赏、第12回东京动画奖的“年度动画奖”等多个奖项

◎获奖记录

第36届日本电影学院奖(2013)  最佳动画电影  细田守



  General #1
    ID : 1 (0x1)
    Complete name : 00000.m2ts
    Format : BDAV
    Format/Info : Blu-ray Video
    File size : 34.8 GiB
    Duration : 1h 57mn
    Overall bit rate mode : Variable
    Overall bit rate : 42.6 Mbps
    Maximum Overall bit rate : 35.5 Mbps
  Video #4113
    ID : 4113 (0x1011)
    Menu ID : 1 (0x1)
    Format : AVC
    Format/Info : Advanced Video Codec
    Format profile : High@L4.1
    Format settings, CABAC : Yes
    Format settings, ReFrames : 4 frames
    Codec ID : 27
    Duration : 1h 57mn
    Bit rate mode : Variable
    Bit rate : 38.7 Mbps
    Maximum bit rate : 38.0 Mbps
    Width : 1 920 pixels
    Height : 1 080 pixels
    Display aspect ratio : 16:9
    Frame rate : 23.976 fps
    Color space : YUV
    Chroma subsampling : 4:2:0
    Bit depth : 8 bits
    Scan type : Progressive
    Bits/(Pixel*Frame) : 0.778
    Stream size : 31.6 GiB (91%)
  Audio #4352
    ID : 4352 (0x1100)
    Menu ID : 1 (0x1)
    Format : TrueHD / AC-3
    Mode extension : CM (complete main)
    Format settings, Endianness : Big
    Muxing mode : Stream extension
    Codec ID : 131
    Duration : 1h 57mn
    Bit rate mode : Variable / Constant
    Bit rate : 640 Kbps
    Maximum bit rate : 2 622 Kbps
    Channel(s) : 6 channels
    Channel positions : Front: L C R, Side: L R, LFE
    Sampling rate : 48.0 KHz
    Bit depth : 16 bits
    Stream size : 536 MiB (2%)
    Language : Japanese
  Audio #4353
    ID : 4353 (0x1101)
    Menu ID : 1 (0x1)
    Format : PCM
    Format settings, Endianness : Big
    Format settings, Sign : Signed
    Muxing mode : Blu-ray
    Codec ID : 128
    Duration : 1h 57mn
    Bit rate mode : Constant
    Bit rate : 1 536 Kbps
    Channel(s) : 2 channels
    Channel positions : Front: L R
    Sampling rate : 48.0 KHz
    Bit depth : 16 bits
    Stream size : 1.26 GiB (4%)
    Language : Chinese
  Text #4608
    ID : 4608 (0x1200)
    Menu ID : 1 (0x1)
    Format : PGS
    Codec ID : 144
    Language : Chinese
  Text #4609
    ID : 4609 (0x1201)
    Menu ID : 1 (0x1)
    Format : PGS
    Codec ID : 144
    Language : Chinese
  Text #4610
    ID : 4610 (0x1202)
    Menu ID : 1 (0x1)
    Format : PGS
    Codec ID : 144
    Language : Chinese
  评论这张
 
阅读(149)| 评论(0)
推荐 转载

历史上的今天

在LOFTER的更多文章

评论

<#--最新日志,群博日志--> <#--推荐日志--> <#--引用记录--> <#--博主推荐--> <#--随机阅读--> <#--首页推荐--> <#--历史上的今天--> <#--被推荐日志--> <#--上一篇,下一篇--> <#-- 热度 --> <#-- 网易新闻广告 --> <#--右边模块结构--> <#--评论模块结构--> <#--引用模块结构--> <#--博主发起的投票-->
 
 
 
 
 
 
 
 
 
 
 
 
 
 

页脚

网易公司版权所有 ©1997-2017