注册 登录  
 加关注
   显示下一条  |  关闭
温馨提示!由于新浪微博认证机制调整,您的新浪微博帐号绑定已过期,请重新绑定!立即重新绑定新浪微博》  |  关闭

逆风飞翔的鸟

追逐风中散落的默契~

 
 
 

日志

 
 
关于我

曾经迷惑于一份距离 曾经感动于一个传说 …… 在仆仆风中 我伸手 抓住你我的缘分 …… “傻傻”的你 能闻到风中 你我的默契吗?!

网易考拉推荐

【亚洲】Vulgaria.2012.低俗喜剧  

2013-05-22 20:46:21|  分类: 亚洲 |  标签: |举报 |字号 订阅

  下载LOFTER 我的照片书  |
【亚洲】Vulgaria.2012.低俗喜剧 - 归鸿 - 逆风飞翔的鸟
【中 文 名】 低俗喜剧
【英 文 名】 VULGARIA
【年  代】 2012
【国  家】 中国香港
【类  别】 喜剧
【语  言】 粤语 / 国语
【IMDB链接】  http://www.imdb.com/title/tt2266938/
【片  长】 93 Mins
【导  演】 彭浩翔
【编  剧】 彭浩翔/林超荣/陆以心
【主  演】 杜汶泽( 饰 杜惠彰)  郑中基( 饰 暴 龙) 雷宇扬( 饰 雷永成)
       邵音音( 饰 邵音音)  叶山豪( 饰 叶山豪) 邹凯光( 饰 邹凯光)
       薛凯琪( 饰 助理Quin)
        
    
【内容简介】

  电影监制杜惠彰(杜汶泽 饰),在电影圈混了多问年仍是寂寂无名,「捞极唔掂」的他莫讲话要有资金开拍新片,甚至连付给大律师前妻(田蕊妮 饰)的赡养费都要一拖再拖。前妻鄙视他,但难得乖女仍当他是偶像,更说希望能在电视上看到他接受访问。为了达成女儿愿望,杜惠彰势要开拍新戏来个谷底反弹!

  经好友雷永成(雷宇扬 饰)介绍下,杜惠彰结识内地投资人暴龙(郑中基 饰),他是广西黑社会老大,最爱吃野味及有另类性癖好。杜与雷为了得到开拍新电影的机会,为电影作出最终极最壮烈牺牲……最后他们得到暴龙的鼎力投资,但暴龙指定找其儿时偶像邵音音,复出重拍经典春宫片,更命名为《官人我又要》。

  杜惠彰排除万难邀得邵音音(邵音音 饰)复出,以及因拍摄3D三级片而患上「人体爆炸恐惧症」的叶山豪(叶山豪 饰)担任男主角,更有出名口技了得的「爆炸嘴」?模徐家欣(陈静 饰)瞓身演出。可惜导演黑仔达(邹凯光 饰)死性不改,例牌临时改剧本,不但令制作严重超支,更令谈好了的安全套赞助见财化水!

  所谓祸不单行,此时暴龙提出一个无理要求、杜被助理Quin(薛凯琪 饰)告他性骚扰、叶山豪「人体爆炸恐惧症」复发辞演、杜又因拖欠赡养费而被前妻禁止见女儿……几经辛苦把电影拍成,却因暴龙不满而下令烧片,杜面对如此严峻兼疯癫的形势,究竟如何收拾?而他到底又会为电影作出如何壮烈的牺牲呢…… 

【导演介绍】

  彭浩翔是香港著名导演兼编剧。出生于香港。代表作品有《买凶拍人》,《伊莎贝拉》,《破事儿》,《志明与春娇》等。彭浩翔曾写过一本畅销小说《全职杀手》,后被搬上银屏。导演处女作《买凶拍人》让他一鸣惊人,《大丈夫》是他的第二部剧情片,获得本届金马奖最佳导演、最佳编剧在内的4项提名。2004年2月,在推出的舞台剧《再生缘》中,他让莫文蔚出演张爱玲一度成为圈中话题。 2010年彭浩翔签约江苏省广播电视总台幸福蓝海影业,开启进军大陆电影市场征程的步伐。

【精彩对白】

  1.你知唔知鸠毛有咩用?
  2.你做也可唔可以唔好咁乸西吖
  3.叫閪咗你班閪仔几閪多次有客人系度就唔好閪丢我架啊嘛!你喺閪要喺咁閪样嘅你话閪唔閪
  4.那日采铺头看,捞鄂班同事采看,差捏笑善
  5.我生平未试过 甘卵好食个牛肉 请问尼味系牛个边个部位?咸酸菜炒牛欢喜吖嘛

【影片评价】

  《低俗喜剧》票房大卖,一半是作品说话,另一半,甚至一大半,则是依仗行销得力——这才是21世纪电影生意该有的样子,好作品加好营销,换来实打实的票房。

  《低俗喜剧》在香港已经上映月余,票房逼近3000万港币,创造香港本年度华语片票房之最,作为一部没有「大明星」「大场面」,只有「港式小聪明」的玩笑之作,恐怕任谁也预料不到会有今天这样的成绩。而且上映许久,导演彭浩翔依旧没放弃,在微博上大力推销,不断玩出「事业扇」、「手机壳」、「买一送一」种种花样,票房大卖,一半是作品说话,另一半,甚至一大半,则是依仗行销得力——这才是21世纪电影生意该有的样子,好作品加好营销,换来实打实的票房。

  《低俗喜剧》的题材也是华语电影界很久没见的业内题材,也就是所说的「戏中戏」,杜汶泽扮演一个三级片监制,为了赚取女儿的赡养费,「屈从」于郑中基扮演的「大佬」,找来年华逝去的当年艳星邵音音,开拍一部新三级片《新官人我要》,拍摄途中,遭遇种种窘况,引发无数笑料。相比之前彭浩翔导演和监制的几部讲述内地香港文化碰撞的戏,这部「正港喜剧」显然是彭浩翔自己更喜欢的,而且他也把自己碰到或听到的在内地找钱谈戏的种种「遭遇」融入其中,再配上香港人(也是不少内地影迷习惯)的港式调侃,90分钟的戏,妙趣横生,虽然打着「低俗」旗号,其实也都算是高级的幽默,不会让观众心生太多厌恶之情。

【获奖记录】

  郑中基凭借《低俗喜剧》获第49届金马奖最佳男配角

【拍摄过程】

   《低俗喜剧》是彭浩翔仅用12天拍摄而成的疯狂喜剧,是百分百香港制作,并未考虑内地市场。由于影片尺度非常的惊人,不乏各种激情床戏及粗口。彭浩翔更爆料该片源自真人真事,有港媒推测,《3D肉蒲团》某女角疑为片中女主角原型。

  男主角杜汶泽与彭浩翔曾合组过「不是兄弟」公司,本身就是电影监制,所以在本片中他算是本色出演,除了爱将杜汶泽外,女主角由嫩模新人陈静担纲,郑中基扮演有特殊性癖好的黑社会老大,《3D肉蒲团》主演叶山豪与曾演出《官人我要》的老牌女星邵音音甚至演「自己」大开咸湿玩笑。



  General #1
    ID : 1 (0x1)
    Complete name : 00000.m2ts
    Format : BDAV
    Format/Info : Blu-ray Video
    File size : 19.1 GiB
    Duration : 1h 32mn
    Overall bit rate mode : Variable
    Overall bit rate : 29.4 Mbps
    Maximum Overall bit rate : 35.5 Mbps
  Video #4113
    ID : 4113 (0x1011)
    Menu ID : 1 (0x1)
    Format : AVC
    Format/Info : Advanced Video Codec
    Format profile : High@L4.1
    Format settings, CABAC : Yes
    Format settings, ReFrames : 2 frames
    Codec ID : 27
    Duration : 1h 32mn
    Bit rate mode : Variable
    Width : 1 920 pixels
    Height : 1 080 pixels
    Display aspect ratio : 16:9
    Frame rate : 24.000 fps
    Color space : YUV
    Chroma subsampling : 4:2:0
    Bit depth : 8 bits
    Scan type : Progressive
  Audio #4352
    ID : 4352 (0x1100)
    Menu ID : 1 (0x1)
    Format : DTS
    Format/Info : Digital Theater Systems
    Format profile : MA / Core
    Mode : 16
    Format settings, Endianness : Big
    Muxing mode : Stream extension
    Codec ID : 134
    Duration : 1h 32mn
    Bit rate mode : Variable
    Bit rate : Unknown / 1 509 Kbps
    Channel(s) : 8 channels / 6 channels
    Channel positions : Front: L C R, Side: L R, Back: L R, LFE / Front: L C R, Side: L R, LFE
    Sampling rate : 48.0 KHz
    Bit depth : 16 bits
    Compression mode : Lossless / Lossy
    Language : Chinese
  Audio #4353
    ID : 4353 (0x1101)
    Menu ID : 1 (0x1)
    Format : AC-3
    Format/Info : Audio Coding 3
    Mode extension : CM (complete main)
    Format settings, Endianness : Big
    Codec ID : 129
    Duration : 1h 32mn
    Bit rate mode : Constant
    Bit rate : 640 Kbps
    Channel(s) : 6 channels
    Channel positions : Front: L C R, Side: L R, LFE
    Sampling rate : 48.0 KHz
    Bit depth : 16 bits
    Compression mode : Lossy
    Stream size : 425 MiB (2%)
    Language : Chinese
  Audio #4354
    ID : 4354 (0x1102)
    Menu ID : 1 (0x1)
    Format : AC-3
    Format/Info : Audio Coding 3
    Mode extension : CM (complete main)
    Format settings, Endianness : Big
    Codec ID : 129
    Duration : 1h 32mn
    Bit rate mode : Constant
    Bit rate : 192 Kbps
    Channel(s) : 2 channels
    Channel positions : Front: L R
    Sampling rate : 48.0 KHz
    Bit depth : 16 bits
    Compression mode : Lossy
    Stream size : 127 MiB (1%)
    Language : Chinese
  Text #4608
    ID : 4608 (0x1200)
    Menu ID : 1 (0x1)
    Format : PGS
    Codec ID : 144
    Language : Chinese
  Text #4609
    ID : 4609 (0x1201)
    Menu ID : 1 (0x1)
    Format : PGS
    Codec ID : 144
    Language : Chinese
  Text #4610
    ID : 4610 (0x1202)
    Menu ID : 1 (0x1)
    Format : PGS
    Codec ID : 144
    Language : English
  评论这张
 
阅读(101)| 评论(0)
推荐 转载

历史上的今天

在LOFTER的更多文章

评论

<#--最新日志,群博日志--> <#--推荐日志--> <#--引用记录--> <#--博主推荐--> <#--随机阅读--> <#--首页推荐--> <#--历史上的今天--> <#--被推荐日志--> <#--上一篇,下一篇--> <#-- 热度 --> <#-- 网易新闻广告 --> <#--右边模块结构--> <#--评论模块结构--> <#--引用模块结构--> <#--博主发起的投票-->
 
 
 
 
 
 
 
 
 
 
 
 
 
 

页脚

网易公司版权所有 ©1997-2017