注册 登录  
 加关注
   显示下一条  |  关闭
温馨提示!由于新浪微博认证机制调整,您的新浪微博帐号绑定已过期,请重新绑定!立即重新绑定新浪微博》  |  关闭

逆风飞翔的鸟

追逐风中散落的默契~

 
 
 

日志

 
 
关于我

曾经迷惑于一份距离 曾经感动于一个传说 …… 在仆仆风中 我伸手 抓住你我的缘分 …… “傻傻”的你 能闻到风中 你我的默契吗?!

网易考拉推荐

【亚洲】Ruroni.Kenshin.Meiji.kenkaku.roman.tan.2012.浪客剑心  

2013-05-22 20:01:56|  分类: 亚洲 |  标签: |举报 |字号 订阅

  下载LOFTER 我的照片书  |
【亚洲】Ruroni.Kenshin.Meiji.kenkaku.roman.tan.2012.浪客剑心 - 归鸿 - 逆风飞翔的鸟
◎片  名 Rurouni Kenshin
◎译  名 浪客剑心 / 神剑闯江湖(台) / Rur?ni Kenshin: Meiji kenkaku roman tan
◎年  代 2012
◎国  家 日本
◎类  别 剧情 / 动作 / 历史
◎语  言 日语 / 粤语
◎片  长 134分钟
◎IMDB链接  http://www.imdb.com/title/tt1979319/
◎导  演 大友启史
◎编  剧 藤井清美 / 大友启史 / 和月伸宏
◎主  演 佐藤健 / 武井咲 / 吉川晃司 / 苍井优 / 青木崇高 / 绫野刚 / 田中伟登 / 奥田瑛二 / 江口洋介 / 香川照之


◎简  介

  经历了动荡的明治维新,日本迎来新的时代。在明治政府第十个年头,不祥的气息弥漫东京。恶德实业家武田观柳(香川照之 饰)操纵女医师高荷惠(苍井优 饰)研制新型鸦片,公开招揽落魄武夫,大肆收购周边土地,有条不紊地实现他的狼子野心。在此期间,以刽子手拔刀斋之名滥杀无辜的鹈堂刃卫(吉川晃司 饰)引起了前新選组头目斋藤一(江口洋介 饰)的注意,也迫令隐姓埋名多年的拔刀斋本尊绯村剑心(佐藤健 饰)登场。寄居在神谷道场的绯村渐渐融入神谷薫(武井咲 饰)和周边庶民的平和生活之中。然而武田欲壑难平,为了保护善良的人,剑心不得不拔出逆刃刀和相乐佐之助(青木崇高 饰)勇闯虎穴……

  本片根据漫画家和月伸宏的经典原作改编。

◎幕后制作

  由佐藤健、武井咲、苍井优等人主演的真人版《浪客剑心》今日曝光首款预告片。在大河剧导演大友启史的掌控下,本片显然弱化了漫画中固有的夸张元素,不论画面还是配乐,看起来都更接近传统时代剧。

  40秒的预告片集中展现了片中的一段杀阵戏,从漫画剧情推测应该是绯村剑心仍是拔刀斋的时期,主演佐藤健长发遮面,利落挥刀,完全摆脱了以往影视作品中白面小生的偶像模式。随后八位主要角色逐一登场,短暂亮相。其实这部作品早就想要拍成电影了,可由于难度很大,于是一直拖到现在。“老实说,漫画中描绘的战斗场面在现实里来说是绝对无法实现的,剑心那种神速的技能要拍出来不太可能吧”。佐藤健从小就很喜欢看《浪客剑心》的漫画和动画,排除动作和特效之外,相信他会把剑心这个角色诠释得比较出色的。 和月伸宏作为侍魂系列的御用画师,其笔下最出众的人物剑心已不止一次出现在游戏的舞台,而前不久DS平台上的Jump大乱斗中也有剑心的身影,而本次触电也还是这位明治剑客的头一遭。

  这些年,伴随着《名侦探柯南》、《乱马1/2》等经典被改编翻拍, 日漫真人化也被贴上了“雷人”的标签,当然这其中很大原因在于导演编剧过分注重还原度,而忽视了可行性与不同媒介之间的差距。不过这部《浪客剑心》似乎找到了真人改编的另一种出路。曾经执导过NHK大河剧《龙马传》的大友启史,将故事中的主线情节单独拿出来,用自己最擅长的手法重新包装。

◎花  絮

  ·《浪客剑心》据和月伸宏人气漫画改编,原作漫画于1994年至1999年在《周刊少年JUMP》上连载,单行本累积发行量超过5000万册。1996年曾被翻拍成TV动画,一经播出深受漫迷追捧。

  ·《浪客剑心》是NHK大河剧《龙马传》的大友启史监督独立后的第一部作品。

  ·官方海报出自曾荣获朝日广告奖、每日设计奖的名摄影师操上和美之手,以黑白的形式来表现“被封印的狂气”这一主题,浮现于画面之上的血红色的十字刀疤格外显眼,给人一种强烈的视觉震撼。



  General #1
    ID : 1 (0x1)
    Complete name : 00000.m2ts
    Format : BDAV
    Format/Info : Blu-ray Video
    File size : 34.1 GiB
    Duration : 2h 14mn
    Overall bit rate mode : Variable
    Overall bit rate : 36.3 Mbps
    Maximum Overall bit rate : 35.5 Mbps
  Video #4113
    ID : 4113 (0x1011)
    Menu ID : 1 (0x1)
    Format : AVC
    Format/Info : Advanced Video Codec
    Format profile : High@L4.1
    Format settings, CABAC : Yes
    Format settings, ReFrames : 4 frames
    Codec ID : 27
    Duration : 2h 14mn
    Bit rate mode : Variable
    Bit rate : 33.6 Mbps
    Maximum bit rate : 33.0 Mbps
    Width : 1 920 pixels
    Height : 1 080 pixels
    Display aspect ratio : 16:9
    Frame rate : 23.976 fps
    Standard : NTSC
    Color space : YUV
    Chroma subsampling : 4:2:0
    Bit depth : 8 bits
    Scan type : Progressive
    Bits/(Pixel*Frame) : 0.676
    Stream size : 31.6 GiB (92%)
    Color primaries : BT.709
    Transfer characteristics : BT.709
    Matrix coefficients : BT.709
  Audio #4352
    ID : 4352 (0x1100)
    Menu ID : 1 (0x1)
    Format : TrueHD / AC-3
    Mode extension : CM (complete main)
    Format settings, Endianness : Big
    Muxing mode : Stream extension
    Codec ID : 131
    Duration : 2h 14mn
    Bit rate mode : Variable / Constant
    Bit rate : 640 Kbps
    Maximum bit rate : 4 074 Kbps
    Channel(s) : 6 channels
    Channel positions : Front: L C R, Side: L R, LFE
    Sampling rate : 96.0 KHz / 48.0 KHz
    Bit depth : 16 bits
    Stream size : 615 MiB (2%)
    Language : Japanese
  Audio #4353
    ID : 4353 (0x1101)
    Menu ID : 1 (0x1)
    Format : TrueHD / AC-3
    Mode extension : CM (complete main)
    Format settings, Endianness : Big
    Muxing mode : Stream extension
    Codec ID : 131
    Duration : 2h 14mn
    Bit rate mode : Variable / Constant
    Bit rate : 640 Kbps
    Maximum bit rate : 4 260 Kbps
    Channel(s) : 6 channels
    Channel positions : Front: L C R, Side: L R, LFE
    Sampling rate : 96.0 KHz / 48.0 KHz
    Bit depth : 16 bits
    Stream size : 615 MiB (2%)
    Language : Chinese
  Text #4608
    ID : 4608 (0x1200)
    Menu ID : 1 (0x1)
    Format : PGS
    Codec ID : 144
    Language : Chinese
  Text #4609
    ID : 4609 (0x1201)
    Menu ID : 1 (0x1)
    Format : PGS
    Codec ID : 144
    Language : English
  评论这张
 
阅读(187)| 评论(0)
推荐 转载

历史上的今天

在LOFTER的更多文章

评论

<#--最新日志,群博日志--> <#--推荐日志--> <#--引用记录--> <#--博主推荐--> <#--随机阅读--> <#--首页推荐--> <#--历史上的今天--> <#--被推荐日志--> <#--上一篇,下一篇--> <#-- 热度 --> <#-- 网易新闻广告 --> <#--右边模块结构--> <#--评论模块结构--> <#--引用模块结构--> <#--博主发起的投票-->
 
 
 
 
 
 
 
 
 
 
 
 
 
 

页脚

网易公司版权所有 ©1997-2017