注册 登录  
 加关注
   显示下一条  |  关闭
温馨提示!由于新浪微博认证机制调整,您的新浪微博帐号绑定已过期,请重新绑定!立即重新绑定新浪微博》  |  关闭

逆风飞翔的鸟

追逐风中散落的默契~

 
 
 

日志

 
 
关于我

曾经迷惑于一份距离 曾经感动于一个传说 …… 在仆仆风中 我伸手 抓住你我的缘分 …… “傻傻”的你 能闻到风中 你我的默契吗?!

网易考拉推荐

【亚洲】Lost.In.Thailand.2012.人再囧途之泰囧  

2013-05-22 19:47:59|  分类: 亚洲 |  标签: |举报 |字号 订阅

  下载LOFTER 我的照片书  |
【亚洲】Lost.In.Thailand.2012.人再囧途之泰囧 - 归鸿 - 逆风飞翔的鸟
◎译  名 人再囧途之泰囧/人再囧途之泰囧
◎片  名 Lost In Thailand
◎年  代 2012
◎国  家 中国
◎类  别 喜剧
◎语  言 普通话
◎IMDB链接  http://www.imdb.com/title/tt2459022/
◎片  长 105 mins
◎导  演 徐峥
◎主  演 徐峥 Zheng Xu  ....徐朗
            王宝强 Baoqiang Wang  ....王宝
            黄渤 Bo Huang  ....高博
            陶虹 Hong Tao  ....安安
            范冰冰 Bingbing Fan  ....范冰冰
            谢楠 Nan Xie


◎简  介

    徐峥和王宝强泰国相逢,再遇囧事一箩筐,徐峥饰演的成功商务男依旧对王宝强充满鄙视。两人先后上演在寺庙遇到人妖和电梯里误会美女的无奈事件。而黄渤饰演的表情严肃黑衣男,与两人纠缠不休,三人更是险些丧命……

◎幕后制作

徐峥王宝强跨国上演囧人囧事

  最为国内影坛两位非常具有个人特色的喜剧演员,徐峥与王宝强在《人在囧途》中的合作演出产生了良好的化学作用,此番再度联袂主演《泰囧》,跨国演绎囧人囧事,王宝强透露二人在剧中的角色将大有颠覆。王宝强称自己在片中的出场会吓到观众,“我现在这头发,就是为这部戏留的”。有记者问及《泰囧》“兄弟组合+泰国奇遇”的模式是否有借鉴好莱坞电影《宿醉2》,徐峥回应“《宿醉》是很美国范儿的喜剧,很精彩,《宿醉2》就不太好看了,没了第一部的新鲜感,《泰囧》和它没有太相似的地方。”

徐峥与王宝强手持机票合影

  《人在囧途》中,徐峥与王宝强上演的“同床共枕”等基情戏码令人印象深刻,这种男人间的兄弟情会在《泰囧》中延续。在开机见面会上,徐峥和王宝强很大方的当众卖腐,二人身着“泰囧”logo的T恤亮相 ,徐峥笑称“这次我和宝强会有更深入的合作,会比《人在囧途》更基情”,王宝强则将即日起程飞往泰国的机票送给徐峥,两人手持机票的合影,更被王宝强笑称“领证了!”


  最炫“泰国风”

  气质版海报中着重突出泰国元素,但浓郁的丛林,河流中的大象仍让人感受到扑面而来的浓浓“泰国风”,《泰囧》99%的场景在泰国取景,充满异域风情的热带风光在正值冬日的贺岁档中更显温馨热闹。

  在如画的风景中,徐峥、王宝强、黄渤则并不能好好休闲享受,而是一路追打、斗殴、探险……无事不囧,徐峥表示:“特别想让这几个主人公有一种‘境由心生’的感觉,风景很优美,但是人的状态很囧。但是在整个的旅途过程当中,其实是经历种种悲催的洗礼,心灵一层一层反而得到净化,到最后得到一种回归平和的心态。”

  打造国民喜剧

  徐峥导演曾表示:“喜剧已经被透支得太厉害了,很多人不去认真地做,这次我对质量很有信心,我们是花了很多心思的,所以相信观众一定可以在电影院里感受到。我是绝对严格地在做一部类型电影,我对观众的反应很敏感,这部电影所有目的就是为了让观众有特别愉悦的观影体验,我们希望我们的努力能够让观众满意。”


  严肃型囧神:“高富帅”徐峥
  演而优则导,徐峥在戏里塑造经典喜剧角色,在戏外则严肃认真,堪称“严肃型囧神”。首执导筒全权打造《人再囧途之泰囧》,徐峥对该片无论从剧本、拍摄、后期 还是其他方面都以国际级喜剧水准严格要求。徐峥表示:“就是让大家高兴一下,这样一个磨难故事,事实上是把观众带入到主人公体验 的位置上来,大家可以身临其境地去体验这段旅程,但最后其实会带给观众更多的东西,如果观众走出电影院时有一种满足感,我觉得那个才是真正的喜剧。” 
  憨厚型囧神:“阳光快乐的2B青年”王宝强 
  《人再囧途之泰囧》中,王宝强的造型十分惹眼:漂染的金色Bob头,夸张的刺猬双肩包,手中不离仙人球,再配以王宝强各种怪异、喜庆的表情,一位个性十足的“阳光快乐2B青年”就囧囧有神地登场。
  “这次人物的造型和内心其实是完全不符的那种感觉,大家可能想象不到,以为这个人跟他的造型一样雷人,但其实不是”,王宝强表示,自己一开始也不适应这个“洋气”造型,“毕竟没弄过那种金黄的头发,挺二挺招人烦的感觉,但是渐渐地就开始喜欢了,因为他的性格其实特别真诚、可爱,我就越演越快乐,越演越开心,到 最后自己都被他感动了。” 
  机智型囧神:“悲催白骨精”黄渤 
  如果说徐峥和王宝强的组合延续了《人在囧途》的“衰运”,那么黄渤的加入则令这对“囧组合”全面升级成为新的“囧神组合”,可见他的戏份相当重要。黄渤表示:“这个人物身上的色彩性比较强,其实他的主要任务 是给徐峥和王宝强施加压力、制造困难,是整个故事的一个推动器。然后徐峥遇到宝强很悲催,我让他们更悲催,但其实我比他们还悲催,这个角色很特别,和我以 前演的都不同”。   
  导演徐峥以“白骨精”定义黄渤在戏中的角色,他的加入,令囧神组合的悲催指数直线升级:“我觉得黄渤完成得非常有趣,他既是一个反派,但是我相信观众也会,也会喜欢他,黄渤与生俱来有这样的能力!” 


 异国之旅引发旅游跟风 炮制囧游攻略

  自电影《泰囧》火爆以来,旅游机构纷纷打造“泰囧线路”。据统计数据显示,12月份报名泰国团队游、自由行的国内游客高达上万名,相比去年同期增长了3倍,明年春节产品也有约50%被抢订。部分旅行社还争取到了电影拍摄地——清迈艾美酒店的资源,安排2晚入住。电影情节中的放孔明灯、嘟嘟车、大象表演等情节也被安排到了日程中。


◎花    絮

·对于“泰囧”这一神秘而又诙谐的名字,徐峥解释主要有三层含义:影片95%以上的故事发生在泰国;谐音是“太囧了”;“泰”字有否极泰来的意味。

·本片是徐峥的电影导演处女作。



  General #0
    ID : 0 (0x0)
    Complete name : 00003.m2ts
    Format : BDAV
    Format/Info : Blu-ray Video
    File size : 22.5 GiB
    Duration : 1h 44mn
    Overall bit rate mode : Variable
    Overall bit rate : 30.7 Mbps
    Maximum Overall bit rate : 48.0 Mbps
  Video #4113
    ID : 4113 (0x1011)
    Menu ID : 1 (0x1)
    Format : AVC
    Format/Info : Advanced Video Codec
    Format profile : High@L4.1
    Format settings, CABAC : Yes
    Format settings, ReFrames : 4 frames
    Codec ID : 27
    Duration : 1h 44mn
    Bit rate mode : Variable
    Bit rate : 27.3 Mbps
    Maximum bit rate : 33.0 Mbps
    Width : 1 920 pixels
    Height : 1 080 pixels
    Display aspect ratio : 16:9
    Frame rate : 24.000 fps
    Standard : NTSC
    Color space : YUV
    Chroma subsampling : 4:2:0
    Bit depth : 8 bits
    Scan type : Progressive
    Bits/(Pixel*Frame) : 0.549
    Stream size : 20.0 GiB (89%)
    Color primaries : BT.709
    Transfer characteristics : BT.709
    Matrix coefficients : BT.709
  Audio #4352
    ID : 4352 (0x1100)
    Menu ID : 1 (0x1)
    Format : TrueHD / AC-3
    Mode extension : CM (complete main)
    Format settings, Endianness : Big
    Muxing mode : Stream extension
    Codec ID : 131
    Duration : 1h 44mn
    Bit rate mode : Variable / Constant
    Bit rate : 640 Kbps
    Maximum bit rate : 4 206 Kbps
    Channel(s) : 6 channels
    Channel positions : Front: L C R, Side: L R, LFE
    Sampling rate : 96.0 KHz / 48.0 KHz
    Bit depth : 16 bits
    Stream size : 481 MiB (2%)
  Audio #4353
    ID : 4353 (0x1101)
    Menu ID : 1 (0x1)
    Format : PCM
    Format settings, Endianness : Big
    Format settings, Sign : Signed
    Muxing mode : Blu-ray
    Codec ID : 128
    Duration : 1h 44mn
    Bit rate mode : Constant
    Bit rate : 1 536 Kbps
    Channel(s) : 2 channels
    Channel positions : Front: L R
    Sampling rate : 48.0 KHz
    Bit depth : 16 bits
    Stream size : 1.13 GiB (5%)
  Text #4608
    ID : 4608 (0x1200)
    Menu ID : 1 (0x1)
    Format : PGS
    Codec ID : 144
  Text #4609
    ID : 4609 (0x1201)
    Menu ID : 1 (0x1)
    Format : PGS
    Codec ID : 144
  Text #4610
    ID : 4610 (0x1202)
    Menu ID : 1 (0x1)
    Format : PGS
    Codec ID : 144
  评论这张
 
阅读(100)| 评论(0)
推荐 转载

历史上的今天

在LOFTER的更多文章

评论

<#--最新日志,群博日志--> <#--推荐日志--> <#--引用记录--> <#--博主推荐--> <#--随机阅读--> <#--首页推荐--> <#--历史上的今天--> <#--被推荐日志--> <#--上一篇,下一篇--> <#-- 热度 --> <#-- 网易新闻广告 --> <#--右边模块结构--> <#--评论模块结构--> <#--引用模块结构--> <#--博主发起的投票-->
 
 
 
 
 
 
 
 
 
 
 
 
 
 

页脚

网易公司版权所有 ©1997-2017