注册 登录  
 加关注
   显示下一条  |  关闭
温馨提示!由于新浪微博认证机制调整,您的新浪微博帐号绑定已过期,请重新绑定!立即重新绑定新浪微博》  |  关闭

逆风飞翔的鸟

追逐风中散落的默契~

 
 
 

日志

 
 
关于我

曾经迷惑于一份距离 曾经感动于一个传说 …… 在仆仆风中 我伸手 抓住你我的缘分 …… “傻傻”的你 能闻到风中 你我的默契吗?!

网易考拉推荐

【亚洲】Beijing.Blues.2012.神探亨特张  

2013-05-22 19:22:25|  分类: 亚洲 |  标签: |举报 |字号 订阅

  下载LOFTER 我的照片书  |
【亚洲】Beijing.Blues.2012.神探亨特张 - 归鸿 - 逆风飞翔的鸟
【影片原名】神探亨特张
【出品年代】2012 年
【上映日期】2012年7月20日 中国
【官方网站】http://www.preall.com/thread-htm-fid-95.html/
【国  家】中国
【类  别】剧情
【导  演】高群书 Qunshu Gao
【主  演】张立宪 Li-xian Zhang  ....神探
      宁财神 Caishen Ning  ....警察
      顾小白 Xiaobai Gu  ....骗子男
      齐溪 Xi Qi  ....红衣美女
      张小强 Zhang Xiao-qiang  ....领导
      王小山 Wang Xiaoshan  ....小偷A
      王兵 Wang Bing  ....小偷B
      陈芳铭 Zhang Fa Cai  ....公交小偷
      全勇先 Quan Yongxian  ....私车小偷
      方磊 Fang Lei  ....骗子女
      陈露 Piao Ye  ....碰瓷女
      赵明义 Zhao Ming Yi  ....碰瓷团伙司机
      牟森 Mu Sen  ....咆哮男
      张阿信 Zhang A-xin  ....红衣帅哥
      慕容雪村 Xue Cun Murong  ....吃烤串路人


【内容简介】

  《神探亨特张》根据真人真事改编,张慧领是海淀分局双榆树派出所一名便衣民警,在七年的时间里抓获1600多名违法犯罪嫌疑人,被誉为“反扒神探”,曾被国家领导人接见。导演高群书曾执导《命案十三宗》、《征服》等知名警匪剧,这次他将要把张惠领的真实事迹搬上大银幕,生动再现一位基层民警的真实生活。

幕后制作

  导演:影片是一台“正负能量对撞机”呼唤每个人释放更多正能量

导演的高群书说:“网络越来越发达,我们每天接受到很多匪夷所思的负能量,你会觉得我们生存的这个社会越来越不美好。敢于直面阴暗面是好事,但更重要的是如何让负能量越来越少。《神探亨特张》探讨的就是这样一件事情,穷人活得很难,但穷不是去坑别人的理由。我们需要更多的正能量,不仅仅是来源于警察,而是我们每个人”。

花絮

  ·电影《神探亨特张》是高导的“1930—2030”百年20部小人物系列电影中的第一部。

  ·本片集结了张立宪、孔二狗、王小山、作业本、宁财神、鹦鹉史航、张发财等一大批微博红人。高群书笑言影片网罗了现在微博上的最强知道分子。

精彩对白

  ——你缺不缺德啊你!
  ——中华民族也不差我一个人缺德啊,我这点事算什么啊!中华民族缺大德的有的是,你们怎么不管啊!
  ——别人缺德在别的地方,我管不了!在我的辖区,你要是敢缺德,我就管死你!



  General #0
    ID : 0 (0x0)
    Complete name : 00006.m2ts
    Format : BDAV
    Format/Info : Blu-ray Video
    File size : 22.3 GiB
    Duration : 1h 58mn
    Overall bit rate mode : Variable
    Overall bit rate : 26.9 Mbps
    Maximum Overall bit rate : 48.0 Mbps
  Video #4113
    ID : 4113 (0x1011)
    Menu ID : 1 (0x1)
    Format : AVC
    Format/Info : Advanced Video Codec
    Format profile : High@L4.1
    Format settings, CABAC : Yes
    Format settings, ReFrames : 4 frames
    Format settings, GOP : M=3, N=18
    Codec ID : 27
    Duration : 1h 58mn
    Bit rate mode : Variable
    Bit rate : 24.8 Mbps
    Maximum bit rate : 35.0 Mbps
    Width : 1 920 pixels
    Height : 1 080 pixels
    Display aspect ratio : 16:9
    Frame rate : 24.000 fps
    Standard : NTSC
    Color space : YUV
    Chroma subsampling : 4:2:0
    Bit depth : 8 bits
    Scan type : Progressive
    Bits/(Pixel*Frame) : 0.498
    Stream size : 20.5 GiB (92%)
    Color primaries : BT.709
    Transfer characteristics : BT.709
    Matrix coefficients : BT.709
  Audio #4352
    ID : 4352 (0x1100)
    Menu ID : 1 (0x1)
    Format : TrueHD / AC-3
    Mode extension : CM (complete main)
    Format settings, Endianness : Big
    Muxing mode : Stream extension
    Codec ID : 131
    Duration : 1h 58mn
    Bit rate mode : Variable / Constant
    Bit rate : 640 Kbps
    Maximum bit rate : 3 036 Kbps
    Channel(s) : 6 channels
    Channel positions : Front: L C R, Side: L R, LFE
    Sampling rate : 96.0 KHz / 48.0 KHz
    Bit depth : 16 bits
    Stream size : 543 MiB (2%)
  Audio #4353
    ID : 4353 (0x1101)
    Menu ID : 1 (0x1)
    Format : AC-3
    Format/Info : Audio Coding 3
    Mode extension : CM (complete main)
    Format settings, Endianness : Big
    Codec ID : 129
    Duration : 1h 58mn
    Bit rate mode : Constant
    Bit rate : 448 Kbps
    Channel(s) : 6 channels
    Channel positions : Front: L C R, Side: L R, LFE
    Sampling rate : 48.0 KHz
    Bit depth : 16 bits
    Compression mode : Lossy
    Stream size : 380 MiB (2%)
  评论这张
 
阅读(68)| 评论(0)
推荐 转载

历史上的今天

在LOFTER的更多文章

评论

<#--最新日志,群博日志--> <#--推荐日志--> <#--引用记录--> <#--博主推荐--> <#--随机阅读--> <#--首页推荐--> <#--历史上的今天--> <#--被推荐日志--> <#--上一篇,下一篇--> <#-- 热度 --> <#-- 网易新闻广告 --> <#--右边模块结构--> <#--评论模块结构--> <#--引用模块结构--> <#--博主发起的投票-->
 
 
 
 
 
 
 
 
 
 
 
 
 
 

页脚

网易公司版权所有 ©1997-2017