注册 登录  
 加关注
   显示下一条  |  关闭
温馨提示!由于新浪微博认证机制调整,您的新浪微博帐号绑定已过期,请重新绑定!立即重新绑定新浪微博》  |  关闭

逆风飞翔的鸟

追逐风中散落的默契~

 
 
 

日志

 
 
关于我

曾经迷惑于一份距离 曾经感动于一个传说 …… 在仆仆风中 我伸手 抓住你我的缘分 …… “傻傻”的你 能闻到风中 你我的默契吗?!

网易考拉推荐

【剧情】La.Dolce.Vita.1960.露滴牡丹开  

2013-05-12 10:34:40|  分类: 剧情 |  标签: |举报 |字号 订阅

  下载LOFTER 我的照片书  |
【剧情】La.Dolce.Vita.1960.露滴牡丹开 - 归鸿 - 逆风飞翔的鸟
◎译  名 甜蜜的生活/露滴牡丹开
◎片  名 La Dolce Vita
◎年  代 1960
◎国  家 意大利/法国
◎类  别 喜剧/剧情
◎语  言 意大利语/西班牙语/英语/法语/德语
◎字  幕 中文
◎IMDB链接  http://www.imdb.com/title/tt0053779/
◎片  长 175 Mins
◎导  演 费德里科·费里尼 Federico Fellini
◎主  演 马塞洛·马斯楚安尼 Marcello Mastroianni ....Marcello Rubini
            安妮塔·艾克伯格 Anita Ekberg ....Sylvia
            阿努克·艾梅 Anouk Aimee ....Maddalena (as Anouk Aimee)
            尼可 Nico ....Nico, top-model (as Nico Otzak)
            莱克斯·巴克 Lex Barker ....Robert
            伊冯·弗奴克丝 Yvonne Furneaux ....Emma
            玛加丽·诺尔 Magali No氀 ....Fanny (as Magali Noel)
            阿兰·盖音 Alain Cuny ....Steiner
            Annibale Ninchi ....Marcello's father
            Walter Santesso ....Paparazzo
            Valeria Ciangottini ....Paola
            Riccardo Garrone ....Riccardo, the Villa Owner
            Ida Galli ....Debutante of the Year
            Audrey McDonald ....Jane (as Audey McDonald)
            Polidor ....Clown
            Alain Dijon ....Frankie Stout
            恩佐·塞鲁西科 Enzo Cerusico ....Newspaper photographer
            Giulio Paradisi ....Newspaper photographer
            Enzo Doria ....Newspaper photographer
            Enrico Glori ....Nadia's Admirer
            Adriana Moneta ....Ninni the Prostitute
            Massimo Busetti ....Lying Child of The Miracle
            Mino Doro ....Nadia's lover
            Giulio Girola ....Police Commissioner
            劳拉·贝蒂 Laura Betti ....Laura
            Domino ....Transvestite dancer
            Carlo Musto ....Transvestite
            Jacques Sernas ....Matinee Idol
            娜迪亚·格雷 Nadia Gray ....Nadia


◎影片介绍

  马切罗(马塞洛氠斯楚安尼 Marcello Mastroianni 饰)是某杂志的专栏记者,他曾试图成为一名作家但是事与愿违,只得终日为明星绯闻奔忙。马切罗经常出席一些社会名流的交际酒会,于是他暗自和摄影师勾搭,设计拍摄明星隐私然后公诸于众。马切罗有一个女友元玛,在送她回家的途中,搭乘了一位妓院老鸨,后者对他讲述了很多风月场中的轶事,这让他对名利场更加厌恶。在基督教的某个仪式上,一位从美国来的名模总是对着媒体搔首弄姿,后来马切罗的批评家朋友斯泰纳一针见血指出了她的虚伪之处,这让他逐渐认清了上流社会的腐朽,并开始重新审视自己的生活。他发现自己并不热衷奢华的生活,而且对于那个自以为是的元玛也并不满意,并进行了我行我素的反抗……

  马切罗重新对人生有更深一层的体会,于是又开始了创作。后来斯泰纳不明原因自杀,他又失去了精神依靠,重陷奢侈浮华中。

  马切罗的记者身份,恰好得以展现上层社会各个层面、各个角度的虚无情绪,以及表面看来无比幸福甜蜜的生活。正如影片中的斯泰纳,马切罗在教堂里见到这位当年的老熟人,如今的名作家的时候,他在风琴前庄严地弹奏,神情间俨然志得意满;而马切罗和女友十分羡慕的知识分子家庭聚会和他们地幸福家庭,也在片刻之间成为人间悲剧。马切罗应该十分了解这样的幻灭心境,他的生活中无处不是这样的灰色情绪,只不过身为作家的斯泰纳更为敏感和矛盾而已。


◎获奖情况

奥斯卡(美国电影学院奖) 1962
最佳服装设计(黑白片) Piero Gherardi
最佳原创剧本 (提名) 费德里科·费里尼
最佳导演 (提名) 费德里科·费里尼
最佳艺术指导-布景(黑白片) (提名) Piero Gherardi
最佳原创剧本 (提名) Brunello Rondi
最佳原创剧本 (提名) 图里奥·佩尼利
最佳原创剧本 (提名) 恩尼奥·弗拉雅诺

英国电影学院奖(BAFTA Film Award) 1961
Best Film from any Source (提名) 费德里科·费里尼

金卫星奖(Golden Satellite Award) 2005
Best Classic DVD
Best Overall DVD (提名)
Best DVD Extra (提名)

戛纳电影节(金棕榈) 1960
最佳影片 费德里科·费里尼

意大利电影新闻记者协会银丝带奖 1961
Best Original Story (Migliore Soggetto Originale) 图里奥·佩尼利
Best Actor (Migliore Attore Protagonista) 马塞洛·马斯楚安尼
Best Original Story (Migliore Soggetto Originale) 恩尼奥·弗拉雅诺
Best Production Design (Migliore Scenografia) Piero Gherardi
Best Original Story (Migliore Soggetto Originale) 费德里科·费里尼

New York Film Critics Circle Awards(NYFCC Award) 1961
最佳外语片

Grammy Awards(Grammy) 1962
Best Soundtrack Album or Recording or Score from Motion Picture or Television (提名) 尼诺·罗塔

David di Donatello Awards(David) 1960
Best Director (Migliore Regista) 费德里科·费里尼



  General #0
    ID : 0 (0x0)
    Complete name : La.Dolce.Vita.1960.BD.REMUX.h264.1080p.DD20.ts
    Format : MPEG-TS
    File size : 38.1 GiB
    Duration : 2h 55mn
    Overall bit rate mode : Variable
    Overall bit rate : 31.0 Mbps
  Video #4129
    ID : 4129 (0x1021)
    Menu ID : 1 (0x1)
    Format : AVC
    Format/Info : Advanced Video Codec
    Format profile : High@L4.1
    Format settings, CABAC : Yes
    Format settings, ReFrames : 3 frames
    Format settings, GOP : M=3, N=24
    Codec ID : 27
    Duration : 2h 55mn
    Bit rate mode : Variable
    Bit rate : 29.1 Mbps
    Maximum bit rate : 38.0 Mbps
    Width : 1 920 pixels
    Height : 1 080 pixels
    Display aspect ratio : 16:9
    Frame rate : 23.976 fps
    Standard : NTSC
    Color space : YUV
    Chroma subsampling : 4:2:0
    Bit depth : 8 bits
    Scan type : Progressive
    Bits/(Pixel*Frame) : 0.585
    Stream size : 35.7 GiB (94%)
    Color primaries : BT.709
    Transfer characteristics : BT.709
    Matrix coefficients : BT.709
  Audio #4133
    ID : 4133 (0x1025)
    Menu ID : 1 (0x1)
    Format : AC-3
    Format/Info : Audio Coding 3
    Mode extension : CM (complete main)
    Format settings, Endianness : Big
    Codec ID : 129
    Duration : 2h 55mn
    Bit rate mode : Constant
    Bit rate : 384 Kbps
    Channel(s) : 2 channels
    Channel positions : Front: L R
    Sampling rate : 48.0 KHz
    Bit depth : 16 bits
    Compression mode : Lossy
    Stream size : 483 MiB (1%)
    Language : English
  评论这张
 
阅读(203)| 评论(0)
推荐 转载

历史上的今天

在LOFTER的更多文章

评论

<#--最新日志,群博日志--> <#--推荐日志--> <#--引用记录--> <#--博主推荐--> <#--随机阅读--> <#--首页推荐--> <#--历史上的今天--> <#--被推荐日志--> <#--上一篇,下一篇--> <#-- 热度 --> <#-- 网易新闻广告 --> <#--右边模块结构--> <#--评论模块结构--> <#--引用模块结构--> <#--博主发起的投票-->
 
 
 
 
 
 
 
 
 
 
 
 
 
 

页脚

网易公司版权所有 ©1997-2017