注册 登录  
 加关注
   显示下一条  |  关闭
温馨提示!由于新浪微博认证机制调整,您的新浪微博帐号绑定已过期,请重新绑定!立即重新绑定新浪微博》  |  关闭

逆风飞翔的鸟

追逐风中散落的默契~

 
 
 

日志

 
 
关于我

曾经迷惑于一份距离 曾经感动于一个传说 …… 在仆仆风中 我伸手 抓住你我的缘分 …… “傻傻”的你 能闻到风中 你我的默契吗?!

网易考拉推荐

【剧情】The.Words.2012.妙笔生花  

2013-05-11 14:56:24|  分类: 剧情 |  标签: |举报 |字号 订阅

  下载LOFTER 我的照片书  |
【剧情】The.Words.2012.妙笔生花 - 归鸿 - 逆风飞翔的鸟
【译   名】妙笔生花|文字欲(港) / 千言万语(台
【片   名】The Words
【小   组】HDChina
【年   代】2012
【国   家】美国
【类   型】剧情 / 爱情
【音   频】英语
【时   间】102 min
【字   幕】中文
【链   接】http://www.imdb.com/title/tt1840417
【导   演】布赖恩·克卢格曼 / 李·施特恩塔尔
【演   员】布莱德利·库珀
           奥利维亚·王尔德
           佐伊·索尔达娜
           丹尼斯·奎德
           杰瑞米·艾恩斯
           迈克尔·麦基恩
           詹姆斯·巴伯森


【内容简介】

  Rory Jansen是一个正在经历创作瓶颈的作家,他渴望成为美国文学的下一个代言人,现在却失去了写作灵感。直到他发现了一部遗失的杰作,其中有他渴望创造的所有内容,他占有了它,并重新成为文学界的宠儿。但他随后发现,他要面对道德的困境以及更惨重的代价。
  罗里·詹森曾经是一个优秀的作家,曾经被认为是美国文坛的希望之星。但是在出版了几本畅销小说之后,詹森就再也没有能力写出什么惊世骇俗的作品来了。迫于生计和账单的烦恼,詹森和自己的女朋友一起来到一个僻静的地方居住,以来是减轻生活成本,二来也是为了寻找新的创作灵感。
  在他们租住的小木屋内,詹森发现了一份被时间遗忘的手稿。那是一本小说,记述的是一个发生在1940年代巴黎的爱情故事。看完手稿之后,詹森觉得自己一辈子都写不出来这种小说,于是,他便偷偷摸摸地把这本小说占为己有。在重新把小说敲进电脑并出版之后,詹森重新战在了美国文坛的制高点--他有理由嘲笑一切没有才华的作家--包括他自己。

  可是,小说出版之后,麻烦才接踵而至,因为小说中的故事和人物来源于真实生活,那些原作者过去的故事和朋友、敌人以及他的后代渐渐地都找上了门来。而且詹森也愈发地觉得,自己和小说的作者有着千丝万缕的联系。这到底是梦境一场、还是无法逃遁的过去,抑或是一个更大道德考验的开始?

【影片点评】

  影片有一个聪明的讲述故事的角度,有一个很不错的故事。在提供娱乐性的同时,也没有流入惊悚片或者是爱情片的俗套。——国际银幕
  这是一部具有情感力量的剧情片。虽然一开始显得非常简单,但是越到后来就能让人越发地感到编剧的实力。而且,整个故事也极有层次。——ComingSoon
  要是把电影的故事写成小说,那么小说无疑会更加吸引人。——综艺杂志
  表演不错,清洁不错,拍摄也不错。就是全片难以让人产生什么情感上的共鸣。作为一部消费主义的影片,两个新导演做的挺到位。——The Playlist


【幕后花絮】

  本片是《创:战纪》两位编剧布莱恩·克鲁格曼和李·斯特恩斯奥的导演处女作。
  影片的剧本在十几年前就已经写好了。而库珀也在12年前看到过影片的剧本。虽然过去了十二年,但是剧本的主体部分并没有被修改。
  影片于2011年的6月7日在加拿大的蒙特利尔开机拍摄。之所以选择蒙特利尔,是因为这里的建筑和景色兼具美国和欧洲的特色,所以能很容易地展示出纽约和巴黎的特色。
  虽然是布莱恩·克鲁格曼和李·斯特恩斯奥的导演处女作,而且全片的投资也不大,但是这部影片却找到了布莱德利·库珀、佐伊·索尔达娜、奥利维亚·王尔德、丹尼斯·奎德和杰瑞米·艾恩斯这样的演员。甚至连出现在1940年代巴黎情节中的男主角,都是“凯斯宾王子”本·巴恩斯。面对这如此庞大的演员阵容,克鲁格曼说:“能请到这些演员真是我们的荣幸和机会,因为他们不仅具有票房号召力,还具有不可小视的演技水准。他们的表演为整部电影带来了不一样的深度和质感。帅气的本·巴恩斯把在巴黎的片段演绎得活灵活现,而老年之后的他,则是由杰瑞米·艾恩斯扮演的。这位英国演员把这个角色扮演的颇具深度。我们能从艾恩斯的表情和眼神中,看到无穷无尽的内容。而年轻的索尔达娜、王尔德和库珀则是这部电影里的关键性角色,他们的集体发挥非常出色,让现代戏的部分也恨就有看点。”
  至于为什么这部电影能吸引来这么多明星的加盟,库珀的回答具有一定的代表性。因为这部电影的剧本非常吸引人。库珀说:“我觉得这部电影具有一个了不得的剧本,它在两小时不到的时间里,把几段爱情故事表述得淋漓尽致。而且,还颇有悬疑和惊悚的看点。我觉得,能出现在这么一部电影中,也是演员的运气,因为这样的剧本并不多见。而且,剧组还找到了那么多的大牌演员作为配角,这就更为罕见了。所以,我没有理由要拒绝这部电影。”而奥利维亚·王尔德则表示说自己是太喜欢这个剧本了,所以,无论什么小角色,她都不会放弃。她说:“看完这个剧本,我就笃定一定要来参演,哪怕是再小的角色,我也不会放弃,因为我实在是太爱这个故事了。”



  General #1
    ID : 1 (0x1)
    Complete name : 00000.m2ts
    Format : BDAV
    Format/Info : Blu-ray Video
    File size : 22.2 GiB
    Duration : 1h 37mn
    Overall bit rate mode : Variable
    Overall bit rate : 32.7 Mbps
    Maximum Overall bit rate : 35.5 Mbps
  Video #4113
    ID : 4113 (0x1011)
    Menu ID : 1 (0x1)
    Format : AVC
    Format/Info : Advanced Video Codec
    Format profile : High@L4.1
    Format settings, CABAC : Yes
    Format settings, ReFrames : 4 frames
    Codec ID : 27
    Duration : 1h 37mn
    Bit rate mode : Variable
    Bit rate : 30.8 Mbps
    Maximum bit rate : 37.0 Mbps
    Width : 1 920 pixels
    Height : 1 080 pixels
    Display aspect ratio : 16:9
    Frame rate : 23.976 fps
    Standard : NTSC
    Color space : YUV
    Chroma subsampling : 4:2:0
    Bit depth : 8 bits
    Scan type : Progressive
    Bits/(Pixel*Frame) : 0.619
    Stream size : 20.9 GiB (94%)
    Color primaries : BT.709
    Transfer characteristics : BT.709
    Matrix coefficients : BT.709
  Audio #4352
    ID : 4352 (0x1100)
    Menu ID : 1 (0x1)
    Format : TrueHD / AC-3
    Mode extension : CM (complete main)
    Format settings, Endianness : Big
    Muxing mode : Stream extension
    Codec ID : 131
    Duration : 1h 37mn
    Bit rate mode : Variable / Constant
    Bit rate : 640 Kbps
    Maximum bit rate : 3 996 Kbps
    Channel(s) : 6 channels
    Channel positions : Front: L C R, Side: L R, LFE
    Sampling rate : 96.0 KHz / 48.0 KHz
    Bit depth : 16 bits
    Stream size : 445 MiB (2%)
    Language : English
  Text #4608
    ID : 4608 (0x1200)
    Menu ID : 1 (0x1)
    Format : PGS
    Codec ID : 144
    Language : Chinese
  Text #4609
    ID : 4609 (0x1201)
    Menu ID : 1 (0x1)
    Format : PGS
    Codec ID : 144
    Language : English
  评论这张
 
阅读(127)| 评论(0)
推荐 转载

历史上的今天

在LOFTER的更多文章

评论

<#--最新日志,群博日志--> <#--推荐日志--> <#--引用记录--> <#--博主推荐--> <#--随机阅读--> <#--首页推荐--> <#--历史上的今天--> <#--被推荐日志--> <#--上一篇,下一篇--> <#-- 热度 --> <#-- 网易新闻广告 --> <#--右边模块结构--> <#--评论模块结构--> <#--引用模块结构--> <#--博主发起的投票-->
 
 
 
 
 
 
 
 
 
 
 
 
 
 

页脚

网易公司版权所有 ©1997-2017