注册 登录  
 加关注
   显示下一条  |  关闭
温馨提示!由于新浪微博认证机制调整,您的新浪微博帐号绑定已过期,请重新绑定!立即重新绑定新浪微博》  |  关闭

逆风飞翔的鸟

追逐风中散落的默契~

 
 
 

日志

 
 
关于我

曾经迷惑于一份距离 曾经感动于一个传说 …… 在仆仆风中 我伸手 抓住你我的缘分 …… “傻傻”的你 能闻到风中 你我的默契吗?!

网易考拉推荐

【动画】Only.Yesterday.1991.岁月的童话  

2013-05-11 14:32:43|  分类: 动画 |  标签: |举报 |字号 订阅

  下载LOFTER 我的照片书  |
【动画】Only.Yesterday.1991.岁月的童话 - 归鸿 - 逆风飞翔的鸟
◎译   名 岁月的童话/回忆点点滴滴/儿时的点点滴滴/童年的点点滴滴
◎片   名 おもひでぽろぽろ / Omohide poro poro / Only Yesterday
◎年   代 1991
◎国   家 日本
◎类   别 剧情/爱情/动画
◎IMDB 链接  http://www.imdb.com/title/tt0102587/
◎语   言 日语/普通话/粤语
◎字   幕 中文
◎片   长 118 mins 49 seconds
◎导   演 高畑勋 Isao Takahata
◎主   演 今井美树 Miki Imai  ....Taeko (voice)
       柳叶敏郎 Toshir? Yanagiba  ....Toshio (voice)
       本名阳子 Youko Honna  ....Taeko (Child) (voice)
       寺田路惠 Michie Terada  ....Mother
       伊藤正博 Masahiro Ito  ....Father
       北川智绘 Chie Kitagawa  ....Taeko's Grandmother (voice)
       近藤芳正 Yoshimasa Kondo  ....Additional Voices
       增田裕生 Yuuki Masuda  ....Hirota
       山下容莉枝 Yorie Yamashita  ....Nanako
       永井一郎 Ichir? Nagai  ....Torahige (uncredited)
       饭塚雅弓 Mayumi Iizuka  ....Tsuneko Tani, Taeko's stuck-up friend
       三野轮有纪 Yuki Minowa  ....Yaeko
       Kazuo Takahashi  ....Additional Voices


◎简   介  

  1982年夏天,妙子27岁了,她向公司请了十天的假,前往姐姐夫家所在的山形县乡村度假,去享受向往已久的乡村生活。一路上不断回想五年级时发生的往事,伴随着回忆她到达了目的地高濑。到达目的地后,迎接她的是一名乡村小伙子,比她小2岁的俊雄。俊雄虽然比妙子小2岁,但为人亲厚,办事认真,十分稳重可靠。

  妙子开始了农民的生活,并乐在其中,向俊雄分享她小时候的点点滴滴,在乡间看到的景色都能勾起美好的回忆。俊雄带着妙子了解农村生活的风貌,看着那些劳作于大自然中的农民,从小在东京长大的妙子体会到了乡间生活的魅力。两人相处甚欢,一起感受岁月流逝的痕迹。正在她要离开的前一天晚上,俊雄的奶奶竟向妙子建议与俊雄结婚,顿时又牵起了妙子的回忆。妙子大惊,然而这让她发觉自己心中对俊雄抱持着特别的好感。在开往东京的列车上,妙子几经思量,对自己的未来做出了选择 ······


◎幕   后

    《岁月的童话》 这是一部由吉卜力工作室,日本著名动画片导演制作推出的清新动人的动画电影,以追忆女主人公在日本六十年代的小学往事为主,将支离破碎的小故事通过回忆串成一气。同时为了力求真实,对过去的社会背景、风气、流行事物都一一地回复重现在观众眼前。可惜国内的观众可能很少有机会体会到那个时代的日本,不能完全体会到制作人员的匠心独到,少了一份亲切感。本片是1991年日本最卖座的本土电影。

    这是一部由漫画改编的动画电影。漫画本身并没有太多的兴奋点可以映画化,只是以一个小学生为主角讲述六十年代的小学趣事,但是高畑勲导演此片的时候加入了原创要素,将背景拖后了十余年,和题目一样,由快三十岁的女主人公一点一点地回忆以前小学时代的事情(原题直译是“点点滴滴的回忆”),还加入了主人公在最后终于找到意中人的小插曲。

  影片以追忆过去日本六十年代的小学往事为主,将支离破碎的小故事通过回忆串成一气。同时为了力求真实,对过去的社会背景、风气、流行事物都一一地回复重现在观众眼前。可惜国内的观众可能很少有机会体会到那个时代的日本,不能完全体会到制作人员的匠心独到,少了一份亲切感。

  主要人物由今井美树和抑叶敏郎扮演,采用了先录声音再配以图像的方式进行制作,表情丰富,甚至于笑时脸上的皱纹也很逼真。最后部分几乎全是两个人的对话,这种方式对诠释作品起了很大的作用。



  General #1
    ID : 1 (0x1)
    Complete name : 00000.m2ts
    Format : BDAV
    Format/Info : Blu-ray Video
    File size : 30.4 GiB
    Duration : 1h 58mn
    Overall bit rate mode : Variable
    Overall bit rate : 36.6 Mbps
    Maximum Overall bit rate : 35.5 Mbps
  Video #4113
    ID : 4113 (0x1011)
    Menu ID : 1 (0x1)
    Format : AVC
    Format/Info : Advanced Video Codec
    Format profile : High@L4.1
    Format settings, CABAC : Yes
    Format settings, ReFrames : 2 frames
    Codec ID : 27
    Duration : 1h 58mn
    Bit rate mode : Variable
    Bit rate : 33.2 Mbps
    Maximum bit rate : 40.0 Mbps
    Width : 1 920 pixels
    Height : 1 080 pixels
    Display aspect ratio : 16:9
    Frame rate : 23.976 fps
    Color space : YUV
    Chroma subsampling : 4:2:0
    Bit depth : 8 bits
    Scan type : Progressive
    Bits/(Pixel*Frame) : 0.668
    Stream size : 27.6 GiB (91%)
  Audio #4352
    ID : 4352 (0x1100)
    Menu ID : 1 (0x1)
    Format : DTS
    Format/Info : Digital Theater Systems
    Format profile : MA / Core
    Muxing mode : Stream extension
    Codec ID : 134
    Duration : 1h 58mn
    Bit rate mode : Variable
    Bit rate : 1 555 Kbps / 1 510 Kbps
    Channel(s) : 2 channels
    Channel positions : Front: L R
    Sampling rate : 48.0 KHz
    Bit depth : 24 bits
    Compression mode : Lossless / Lossy
    Delay relative to video : 8ms
    Language : Japanese
  Audio #4353
    ID : 4353 (0x1101)
    Menu ID : 1 (0x1)
    Format : AC-3
    Format/Info : Audio Coding 3
    Mode extension : CM (complete main)
    Format settings, Endianness : Big
    Codec ID : 129
    Duration : 1h 58mn
    Bit rate mode : Constant
    Bit rate : 192 Kbps
    Channel(s) : 2 channels
    Channel positions : Front: L R
    Sampling rate : 48.0 KHz
    Bit depth : 16 bits
    Compression mode : Lossy
    Delay relative to video : 29ms
    Stream size : 163 MiB (1%)
    Language : Chinese
  Audio #4354
    ID : 4354 (0x1102)
    Menu ID : 1 (0x1)
    Format : AC-3
    Format/Info : Audio Coding 3
    Format profile : Dolby Digital
    Mode extension : CM (complete main)
    Format settings, Endianness : Big
    Codec ID : 129
    Duration : 1h 58mn
    Bit rate mode : Constant
    Bit rate : 192 Kbps
    Channel(s) : 2 channels
    Channel positions : Front: L R
    Sampling rate : 48.0 KHz
    Bit depth : 16 bits
    Compression mode : Lossy
    Delay relative to video : 29ms
    Stream size : 163 MiB (1%)
    Language : Chinese
  Text #4608
    ID : 4608 (0x1200)
    Menu ID : 1 (0x1)
    Format : PGS
    Codec ID : 144
    Language : Chinese
  Text #4609
    ID : 4609 (0x1201)
    Menu ID : 1 (0x1)
    Format : PGS
    Codec ID : 144
    Language : Chinese
  Text #4610
    ID : 4610 (0x1202)
    Menu ID : 1 (0x1)
    Format : PGS
    Codec ID : 144
    Language : Japanese
  Text #4611
    ID : 4611 (0x1203)
    Menu ID : 1 (0x1)
    Format : PGS
    Codec ID : 144
    Delay relative to video : 8s 12ms
    Language : English
  Text #4612
    ID : 4612 (0x1204)
    Menu ID : 1 (0x1)
    Format : PGS
    Codec ID : 144
    Delay relative to video : 8s 12ms
    Language : French
  Text #4613
    ID : 4613 (0x1205)
    Menu ID : 1 (0x1)
    Format : PGS
    Codec ID : 144
    Language : German
  Text #4614
    ID : 4614 (0x1206)
    Menu ID : 1 (0x1)
    Format : PGS
    Codec ID : 144
    Language : Korean
  评论这张
 
阅读(128)| 评论(0)
推荐 转载

历史上的今天

在LOFTER的更多文章

评论

<#--最新日志,群博日志--> <#--推荐日志--> <#--引用记录--> <#--博主推荐--> <#--随机阅读--> <#--首页推荐--> <#--历史上的今天--> <#--被推荐日志--> <#--上一篇,下一篇--> <#-- 热度 --> <#-- 网易新闻广告 --> <#--右边模块结构--> <#--评论模块结构--> <#--引用模块结构--> <#--博主发起的投票-->
 
 
 
 
 
 
 
 
 
 
 
 
 
 

页脚

网易公司版权所有 ©1997-2017