注册 登录  
 加关注
   显示下一条  |  关闭
温馨提示!由于新浪微博认证机制调整,您的新浪微博帐号绑定已过期,请重新绑定!立即重新绑定新浪微博》  |  关闭

逆风飞翔的鸟

追逐风中散落的默契~

 
 
 

日志

 
 
关于我

曾经迷惑于一份距离 曾经感动于一个传说 …… 在仆仆风中 我伸手 抓住你我的缘分 …… “傻傻”的你 能闻到风中 你我的默契吗?!

网易考拉推荐

【动画】Kiki's.Delivery.Service.1989.魔女宅急便  

2013-05-11 14:14:01|  分类: 动画 |  标签: |举报 |字号 订阅

  下载LOFTER 我的照片书  |
【动画】Kikis.Delivery.Service.1989.魔女宅急便 - 归鸿 - 逆风飞翔的鸟
【译    名】  魔女宅急便/小魔女限时专送
【片    名】  Majo no takky?bin  / Kiki‘s Delivery Service
【年    代】  1989
【国    家】  日本
【类    别】  动画 / 家庭 / 奇幻 / 冒险
【语    言】  国语
【字    幕】  中字
【IMDB链接】  http://www.imdb.com/title/tt0097814
【片    长】  103 min
【导    演】  宫崎骏   Hayao Miyazaki  
【主    演】  高山南 Minami Takayama  ....Kiki/Ursula (voice)
              佐久间玲 Rei Sakuma  ....Jiji (voice)
              户田惠子 Keiko Toda  ....Osono (voice)
              山口胜平 Kappei Yamaguchi  ....Tombo (voice)
              信泽三惠子 Mieko Nobusawa  ....Kokiri, Kiki no haha (Kiki‘s mummy) (voice)
              三浦浩一 Koichi Miura  ....Okino, Kiki no chichi (Kiki‘s daddy) (voice)
              加藤治子 Haruko Kato  ....R?-fujin (Madame) (voice)
              关弘子 Hiroko Seki  ....Barsa (Bertha) (voice)
              渊崎由里子 Yuriko Fuchizaki  ....Ketto (voice)
              山寺宏一 K?ichi Yamadera  ....Bakery worker, policeman (voice)
              井上喜久子 Kikuko Inoue  ....Beautiful


【简     介】

  魔法少女一旦到了13岁就必须离开家进行为期一年的独立修行,琪琪也不例外。她带着黑猫吉吉来到一个靠海的大城市中,可是谁都不搭理她。沮丧的琪琪偶然替别人送去一件遗失品,从而获得了面包店老板娘的好感。在她的帮助下,琪琪利用自己的飞行魔法开始了快递业务。渐渐地,琪琪习惯了新的环境,工作也进行得很顺利,她结识不少新朋友。一个热衷于制造飞机的男孩“蜻蜓”邀请琪琪参加飞行俱乐部的聚会。在聚会当天,琪琪为了帮助一位老夫人送东西而没有去成,并在雨中得了感冒。琪琪突然发现自己的魔法能力正在削弱。好友乌尔斯拉邀请情绪低落的琪琪去自己家玩,在她的安慰下琪琪又恢复了自信。电视里播出“蜻蜓”开飞机试飞遇险的新闻,琪琪骑上拖把奋力飞往出事地点……

【幕后制作】

  本片改编自角野荣子的同名小说,描述了一个小魔女在大都市中学会自立的故事。影片塑造了一个活泼可爱的少女形象,她穿着黑裙子头上扎着一个鲜红的大蝴蝶结,心地善良,乐于助人,相当具有亲和力,让人在不知不觉中随着她成长经历的每一个脚步或喜或忧。剧中其它形形色色的登场人物也各具魅力,有慈祥的老奶奶、风趣的漫画家、豪爽的女主人、执着于梦想的少年……影片画面明丽优美,音乐动人,是一部动画杰作。本片是1989年最卖座的日本本土电影。

  该片改编自日本作家角野荣子的同名原作,也是宫崎骏第一部文学改编作品。当然,和他之后的改编作品一样,影片与原作没有太多的相似点。在这部面向十六、七岁女性的影片中,年满13周岁的小魔女奇奇将要离家,只身闯荡繁华的现代社会。与《龙猫》一样,《魔女宅急便》没有坏蛋,也没有纷争。观者只是随着奇奇和她那只爱挖苦人的小猫吉吉,展开一段寻找自信的旅程。

  宫崎骏自评本片

  “我从青年漫画家们四处求职的现状中得到灵感。这不是简单的赚钱糊口(虽然每个人都如是而为),而是关于你自己的生存之道:如何向世人展现自己的个性?在制作影片的过程中,我认为这才是人们所应关心的问题。

  不过今天来做《魔女宅急便》的话,影片肯定会有所不同。当然奇奇还会是一名魔女,而柯力普(影片中痴迷飞机并和奇奇成为好朋友的男孩)则得参加考试,进入大学,再找到一份工作,然后来到奇奇面前说,‘可以请你出去走走吗?’对于奇奇,我确定她会继续做着宅急便的工作,每天见各式各样的人,并且十分享受这种生活,偶尔又会做些小小的疯狂之举。但是肯定没人愿意看到她摇身一变成为一家大型物流公司的总裁(笑)。”



  General #1
    ID : 1 (0x1)
    Complete name : 00000.m2ts
    Format : BDAV
    Format/Info : Blu-ray Video
    File size : 29.8 GiB
    Duration : 1h 43mn
    Overall bit rate mode : Variable
    Overall bit rate : 41.4 Mbps
    Maximum Overall bit rate : 35.5 Mbps
  Video #4113
    ID : 4113 (0x1011)
    Menu ID : 1 (0x1)
    Format : AVC
    Format/Info : Advanced Video Codec
    Format profile : High@L4.1
    Format settings, CABAC : Yes
    Format settings, ReFrames : 2 frames
    Codec ID : 27
    Duration : 1h 43mn
    Bit rate mode : Variable
    Bit rate : 37.6 Mbps
    Maximum bit rate : 40.0 Mbps
    Width : 1 920 pixels
    Height : 1 080 pixels
    Display aspect ratio : 16:9
    Frame rate : 23.976 fps
    Color space : YUV
    Chroma subsampling : 4:2:0
    Bit depth : 8 bits
    Scan type : Progressive
    Bits/(Pixel*Frame) : 0.756
    Stream size : 27.1 GiB (91%)
  Audio #4352
    ID : 4352 (0x1100)
    Menu ID : 1 (0x1)
    Format : DTS
    Format/Info : Digital Theater Systems
    Format profile : MA / Core
    Muxing mode : Stream extension
    Codec ID : 134
    Duration : 1h 43mn
    Bit rate mode : Variable
    Bit rate : 1 555 Kbps / 1 510 Kbps
    Channel(s) : 2 channels
    Channel positions : Front: L R
    Sampling rate : 48.0 KHz
    Bit depth : 24 bits
    Compression mode : Lossless / Lossy
    Delay relative to video : 8ms
    Language : Japanese
  Audio #4353
    ID : 4353 (0x1101)
    Menu ID : 1 (0x1)
    Format : AC-3
    Format/Info : Audio Coding 3
    Format profile : Dolby Digital
    Mode extension : CM (complete main)
    Format settings, Endianness : Big
    Codec ID : 129
    Duration : 1h 43mn
    Bit rate mode : Constant
    Bit rate : 192 Kbps
    Channel(s) : 2 channels
    Channel positions : Front: L R
    Sampling rate : 48.0 KHz
    Bit depth : 16 bits
    Compression mode : Lossy
    Delay relative to video : 29ms
    Stream size : 142 MiB (0%)
    Language : English
  Audio #4354
    ID : 4354 (0x1102)
    Menu ID : 1 (0x1)
    Format : AC-3
    Format/Info : Audio Coding 3
    Mode extension : CM (complete main)
    Format settings, Endianness : Big
    Codec ID : 129
    Duration : 1h 43mn
    Bit rate mode : Constant
    Bit rate : 192 Kbps
    Channel(s) : 2 channels
    Channel positions : Front: L R
    Sampling rate : 48.0 KHz
    Bit depth : 16 bits
    Compression mode : Lossy
    Delay relative to video : 29ms
    Stream size : 142 MiB (0%)
    Language : Chinese
  Audio #4355
    ID : 4355 (0x1103)
    Menu ID : 1 (0x1)
    Format : AC-3
    Format/Info : Audio Coding 3
    Mode extension : CM (complete main)
    Format settings, Endianness : Big
    Codec ID : 129
    Duration : 1h 43mn
    Bit rate mode : Constant
    Bit rate : 192 Kbps
    Channel(s) : 2 channels
    Channel positions : Front: L R
    Sampling rate : 48.0 KHz
    Bit depth : 16 bits
    Compression mode : Lossy
    Delay relative to video : 29ms
    Stream size : 142 MiB (0%)
    Language : Chinese
  Text #4608
    ID : 4608 (0x1200)
    Menu ID : 1 (0x1)
    Format : PGS
    Codec ID : 144
    Language : Chinese
  Text #4609
    ID : 4609 (0x1201)
    Menu ID : 1 (0x1)
    Format : PGS
    Codec ID : 144
    Language : Chinese
  Text #4610
    ID : 4610 (0x1202)
    Menu ID : 1 (0x1)
    Format : PGS
    Codec ID : 144
    Language : Japanese
  Text #4611
    ID : 4611 (0x1203)
    Menu ID : 1 (0x1)
    Format : PGS
    Codec ID : 144
    Delay relative to video : 7s 553ms
    Language : English
  Text #4612
    ID : 4612 (0x1204)
    Menu ID : 1 (0x1)
    Format : PGS
    Codec ID : 144
    Language : French
  评论这张
 
阅读(93)| 评论(0)
推荐 转载

历史上的今天

在LOFTER的更多文章

评论

<#--最新日志,群博日志--> <#--推荐日志--> <#--引用记录--> <#--博主推荐--> <#--随机阅读--> <#--首页推荐--> <#--历史上的今天--> <#--被推荐日志--> <#--上一篇,下一篇--> <#-- 热度 --> <#-- 网易新闻广告 --> <#--右边模块结构--> <#--评论模块结构--> <#--引用模块结构--> <#--博主发起的投票-->
 
 
 
 
 
 
 
 
 
 
 
 
 
 

页脚

网易公司版权所有 ©1997-2017