注册 登录  
 加关注
   显示下一条  |  关闭
温馨提示!由于新浪微博认证机制调整,您的新浪微博帐号绑定已过期,请重新绑定!立即重新绑定新浪微博》  |  关闭

逆风飞翔的鸟

追逐风中散落的默契~

 
 
 

日志

 
 
关于我

曾经迷惑于一份距离 曾经感动于一个传说 …… 在仆仆风中 我伸手 抓住你我的缘分 …… “傻傻”的你 能闻到风中 你我的默契吗?!

网易考拉推荐

【剧情】Happiness.Never.Comes.Alone.2012.邂逅幸福  

2013-03-09 15:10:03|  分类: 剧情 |  标签: |举报 |字号 订阅

  下载LOFTER 我的照片书  |
【剧情】Happiness.Never.Comes.Alone.2012.邂逅幸福 - 归鸿 - 逆风飞翔的鸟
◎译   名 邂逅幸福/好事成双/命中注定搭错线
◎片   名 Un bonheur n'arrive jamais seul /Happiness never comes alone
◎年   代 2012
◎国   家 法国
◎类   别 喜剧/爱情
◎IMDB 链接  http://www.imdb.com/title/tt1872880/
◎语   言 法语
◎字   幕 中文
◎片   长 109 mins 14 seconds
◎导   演 詹姆斯·胡特 James Huth
◎主   演 苏菲·玛索 Sophie Marceau
       加德·艾尔马莱 Gad Elmaleh  ....Sacha
       弗朗西斯·贝尔兰德 Fran?ois Berléand  ....Alain Posche
       毛利斯·巴尔特莱米 Maurice Barthélémy  ....Laurent
       米凯尔·阿比特布 Micha?l Abiteboul  ....Lionel
       朱莉安娜·罗特 Julie-Anne Roth  ....Chris
       Macha Méril  ....Mme Keller
       Fran?ois Vincentelli  ....César
       Timéo Leloup  ....Léonard
       Milena Chiron  ....Suzy
       Timothé Gauron  ....Louis
       西里尔·盖伊 Cyril Guei  ....Xavier
       Sacha Prijovic  ....Le concierge
       贝纳尼丝·玛尔洛 Bérénice Marlohe
       马西娅·米弗朗西斯 Marcia M Francis  ....Bar Lounge Guest
       Litzi Vezsi  ....Mamie Matzü
       Robert Charlebois  ....Jean-Seb Bigstone
       Valérie Crouzet  ....Cécile Monet
       Dina Capistrano Nietes  ....Minerva Cea, dite Nana
       Vincent Deniard  ....Nicolas l'artiste
       Armando Gamberini  ....Vincenzo d'Il Barone
       Anne-Sophie Boubals  ....Coralie Léger de Lourdes
       杰罗姆·赛杜 Jér?me Seydoux  ....Professeur Delo?le
       Clara Bonnet  ....Irène, la stagiaire
       Audrey Looten  ....Assistante Charlotte
       Xavier Pottier  ....Romain, le boucher
       Pierre-Yves Plat  ....Bruno Vaneau
       Jack Lang  ....Le ministre de la Culture
       Nathalie Guizol  ....Administratrice Théatre Mogador
       Paule Coudert  ....Administratrice
       André Dlugosz  ....Le plombier
       Régis R.  ....Régis l'artiste (as Régis-R)
       Muriel Corbel  ....La chorégraphe
       Jean-Claude Hadida  ....Iszak
       Manesca De Ternay  ....La femme au cerf
       Philippe Bardy  ....Directeur marketing
       Pascal Decolland  ....Second Posche
       Aleksandra Klebanska  ....Marieke, hollandaise
       Jess Bennett  ....Cynthia, américaine
       萨娜·萍克特 Shauna Pinkett  ....Amie de Cynthia
       Jensen Samoo  ....Laurent échaubard
       Shannon Renaudeau Shillito  ....Léa, assistante Xavier (as Shannon Renaudeau)
       Emmanuel Tamalet  ....Créatif agence pub
       Jean-Philippe Clément  ....Créatif agence pub
       Marion Chevrier  ....Stagiaire agence pub
       Geoffrey Bateman  ....Bill, administrateur
       Michel Bouis  ....Coureur
       Laurent Helewa  ....Client Vincenzo
       Stefan Golden  ....Jogger US
       Guillaume Dolmans  ....Pawel
       Chloé Ban  ....Danseuse
       David Defever  ....Danseur
       Julien Fournier  ....Danseur
       Magali Gajan  ....Danseuse
       Cyrielle Musy  ....Danseuse
       Alexandra Naudet  ....Danseuse
       Michèle Prélonge  ....Danseuse
       Maxime Rigobert  ....Danseur
       Edith Christoph  ....Danseuse
       Ga?l Santisteva  ....Danseur
       Christophe Yves  ....Danseur


◎简   介  

    《邂逅幸福》是一部制作精良但是无明显主流情节的法国浪漫主义喜剧。影片随着一个已经40岁却仍然不成熟的广告歌作者萨沙(加德·艾尔马莱 Gad Elmaleh 饰)开始。他依然单身,常常和他的朋友一起与20岁左右的美丽女孩聚会。他的母亲依然经常出现在他的公寓,给他带晚餐,清 洗他的衣物。他没有成长的渴望,并且特别地厌恶孩子。一天,他与他大客户的前妻夏洛特(苏菲·玛索 Sophie Marceau 饰)开始了一段恋爱。她与前夫也有三个孩子。通过他们的恋爱,他终于开始成熟,甚至学习疼爱孩子们。

  萨沙,他的钢琴,晚会,他在一家俱乐部演奏爵士乐,都吸引着美丽的女人们的心,

    他只活在当下,只为了欢愉。不用早起的闹钟,不要婚姻。

  夏洛特则有三个小孩、两个前夫和一份职业生涯要经营。在她的生活里,没有爱情的位置。两人是两个世界的人。没什么能使他们在一起。。。

  但两人却是如此相配。

    广告歌创作人阿查,爱弹琴爱夜蒲,晚晚在爵士吧风流快活,和朋友揽女劈酒,感情生活丰富到满泻,却从没有结婚念头;两度离婚带着三个仔女的莎洛蒂,在富豪前夫的艺廊打工,事业与家庭令她容不下爱情两个字...

    一场无情白事的过云雨,令南辕北辙的阿查和莎洛蒂神奇地接通电流,相逢恨晚的他们,能否排除万难,成就天长地久呢?



   General #1
      ID : 1 (0x1)
      Complete name : 00000.m2ts
      Format : BDAV
      Format/Info : Blu-ray Video
      File size : 21.4 GiB
      Duration : 1h 49mn
      Overall bit rate mode : Variable
      Overall bit rate : 28.1 Mbps
      Maximum Overall bit rate : 35.5 Mbps
   Video #4113
      ID : 4113 (0x1011)
      Menu ID : 1 (0x1)
      Format : AVC
      Format/Info : Advanced Video Codec
      Format profile : High@L4.1
      Format settings, CABAC : Yes
      Format settings, ReFrames : 4 frames
      Codec ID : 27
      Duration : 1h 49mn
      Bit rate mode : Variable
      Bit rate : 26.3 Mbps
      Maximum bit rate : 32.0 Mbps
      Width : 1 920 pixels
      Height : 1 080 pixels
      Display aspect ratio : 16:9
      Frame rate : 24.000 fps
      Standard : NTSC
      Color space : YUV
      Chroma subsampling : 4:2:0
      Bit depth : 8 bits
      Scan type : Progressive
      Bits/(Pixel*Frame) : 0.529
      Stream size : 20.1 GiB (94%)
      Color primaries : BT.709
      Transfer characteristics : BT.709
      Matrix coefficients : BT.709
   Audio #4352
      ID : 4352 (0x1100)
      Menu ID : 1 (0x1)
      Format : TrueHD / AC-3
      Mode extension : CM (complete main)
      Format settings, Endianness : Big
      Muxing mode : Stream extension
      Codec ID : 131
      Duration : 1h 49mn
      Bit rate mode : Variable / Constant
      Bit rate : 640 Kbps
      Maximum bit rate : 3 816 Kbps
      Channel(s) : 6 channels
      Channel positions : Front: L C R, Side: L R, LFE
      Sampling rate : 96.0 KHz / 48.0 KHz
      Bit depth : 16 bits
      Stream size : 500 MiB (2%)
      Language : French
   Text #4608
      ID : 4608 (0x1200)
      Menu ID : 1 (0x1)
      Format : PGS
      Codec ID : 144
      Language : Chinese
   Text #4609
      ID : 4609 (0x1201)
      Menu ID : 1 (0x1)
      Format : PGS
      Codec ID : 144
      Language : English
  评论这张
 
阅读(152)| 评论(0)
推荐 转载

历史上的今天

在LOFTER的更多文章

评论

<#--最新日志,群博日志--> <#--推荐日志--> <#--引用记录--> <#--博主推荐--> <#--随机阅读--> <#--首页推荐--> <#--历史上的今天--> <#--被推荐日志--> <#--上一篇,下一篇--> <#-- 热度 --> <#-- 网易新闻广告 --> <#--右边模块结构--> <#--评论模块结构--> <#--引用模块结构--> <#--博主发起的投票-->
 
 
 
 
 
 
 
 
 
 
 
 
 
 

页脚

网易公司版权所有 ©1997-2017