注册 登录  
 加关注
   显示下一条  |  关闭
温馨提示!由于新浪微博认证机制调整,您的新浪微博帐号绑定已过期,请重新绑定!立即重新绑定新浪微博》  |  关闭

逆风飞翔的鸟

追逐风中散落的默契~

 
 
 

日志

 
 
关于我

曾经迷惑于一份距离 曾经感动于一个传说 …… 在仆仆风中 我伸手 抓住你我的缘分 …… “傻傻”的你 能闻到风中 你我的默契吗?!

网易考拉推荐

【亚洲】I.Love.Hong.Kong.2013.我爱香港之恭喜发财  

2013-03-29 14:35:26|  分类: 亚洲 |  标签: |举报 |字号 订阅

  下载LOFTER 我的照片书  |
【亚洲】I.Love.Hong.Kong.2013.我爱香港之恭喜发财 - 归鸿 - 逆风飞翔的鸟
◎译  名 2013我爱香港之恭喜发财/我爱HK2013
◎片  名 I Love Hong Kong 2013
◎年  代 2013
◎国  家 中国香港  
◎类  别 剧情/喜剧
◎语  言 粤语/汉语普通话  
◎片  长 110 Mins
◎导  演 钟澍佳 Chung Shu Kai
◎主  演 曾志伟 Eric Tsang
      谭咏麟 Alan Tam
      谢天华 Michael Tse
      黄宗泽 Bosco Wong
      徐子珊 Kate Tsui
      叶玉卿 Veronica Yip
      

◎简  介 

    七十年代香港,遍地黄金,处处都有生机!为人忠直的宋池雄(黄宗泽饰)遇上狡猾的夏石森(谢天华饰),促使宋找到人生第一份工作,与夏一起到茶楼打工。茶楼老板美龙骨(冯淬帆饰)心地善良,伙计骑呢,街坊盏鬼,使茶楼每天都充满惊喜,人情味和欢乐共冶一炉。唯情关始终挡不过,宋池雄和夏石森同时爱上太子女美洋洋(徐子珊饰),憨直男对战花靓仔;美洋洋好友朱玉圆(郑欣宜饰)为人泼辣,扬言男不坏女不爱,只爱夏石森。

    众人冲过情关,也难敌时代巨轮,面对股灾、移民潮等,宋池雄紧守冈位,捍卫茶楼,与街坊一起渡过难关。现代的宋池雄(谭咏麟饰)人到中年,美洋洋(叶玉卿饰)已为人母,夏石森(陈百祥饰)成为集团老板,茶楼面对这个年头的恶势力,倾诉神仙(曾志伟饰)能否令酒楼再添欢乐,又是否可以一如以往,团结就是力量。



  General #0
    ID : 0 (0x0)
    Complete name : 00003.m2ts
    Format : BDAV
    Format/Info : Blu-ray Video
    File size : 18.6 GiB
    Duration : 1h 38mn
    Overall bit rate mode : Variable
    Overall bit rate : 27.1 Mbps
    Maximum Overall bit rate : 48.0 Mbps
  Video #4113
    ID : 4113 (0x1011)
    Menu ID : 1 (0x1)
    Format : AVC
    Format/Info : Advanced Video Codec
    Format profile : High@L4.1
    Format settings, CABAC : Yes
    Format settings, ReFrames : 4 frames
    Format settings, GOP : M=3, N=24
    Codec ID : 27
    Duration : 1h 38mn
    Bit rate mode : Variable
    Bit rate : 25.0 Mbps
    Width : 1 920 pixels
    Height : 1 080 pixels
    Display aspect ratio : 16:9
    Frame rate : 24.000 fps
    Standard : NTSC
    Color space : YUV
    Chroma subsampling : 4:2:0
    Bit depth : 8 bits
    Scan type : Progressive
    Bits/(Pixel*Frame) : 0.502
    Stream size : 17.1 GiB (92%)
    Color primaries : BT.709
    Transfer characteristics : BT.709
    Matrix coefficients : BT.709
  Audio #4352
    ID : 4352 (0x1100)
    Menu ID : 1 (0x1)
    Format : TrueHD / AC-3
    Mode extension : CM (complete main)
    Format settings, Endianness : Big
    Muxing mode : Stream extension
    Codec ID : 131
    Duration : 1h 38mn
    Bit rate mode : Variable / Constant
    Bit rate : 640 Kbps
    Maximum bit rate : 6 240 Kbps
    Channel(s) : 8 channels / 6 channels
    Channel positions : Front: L C R, Side: L R, Back: L R, LFE / Front: L C R, Side: L R, LFE
    Sampling rate : 96.0 KHz / 48.0 KHz
    Bit depth : 16 bits
    Stream size : 449 MiB (2%)
  Audio #4353
    ID : 4353 (0x1101)
    Menu ID : 1 (0x1)
    Format : AC-3
    Format/Info : Audio Coding 3
    Mode extension : CM (complete main)
    Format settings, Endianness : Big
    Muxing mode : Stream extension
    Codec ID : 132
    Duration : 1h 38mn
    Bit rate mode : Constant
    Bit rate : 448 Kbps
    Channel(s) : 6 channels
    Channel positions : Front: L C R, Side: L R, LFE
    Sampling rate : 48.0 KHz
    Bit depth : 16 bits
    Compression mode : Lossy
    Stream size : 314 MiB (2%)
  Text #4608
    ID : 4608 (0x1200)
    Menu ID : 1 (0x1)
    Format : PGS
    Codec ID : 144
  Text #4609
    ID : 4609 (0x1201)
    Menu ID : 1 (0x1)
    Format : PGS
    Codec ID : 144
  Text #4610
    ID : 4610 (0x1202)
    Menu ID : 1 (0x1)
    Format : PGS
    Codec ID : 144
  评论这张
 
阅读(186)| 评论(0)
推荐 转载

历史上的今天

在LOFTER的更多文章

评论

<#--最新日志,群博日志--> <#--推荐日志--> <#--引用记录--> <#--博主推荐--> <#--随机阅读--> <#--首页推荐--> <#--历史上的今天--> <#--被推荐日志--> <#--上一篇,下一篇--> <#-- 热度 --> <#-- 网易新闻广告 --> <#--右边模块结构--> <#--评论模块结构--> <#--引用模块结构--> <#--博主发起的投票-->
 
 
 
 
 
 
 
 
 
 
 
 
 
 

页脚

网易公司版权所有 ©1997-2017