注册 登录  
 加关注
   显示下一条  |  关闭
温馨提示!由于新浪微博认证机制调整,您的新浪微博帐号绑定已过期,请重新绑定!立即重新绑定新浪微博》  |  关闭

逆风飞翔的鸟

追逐风中散落的默契~

 
 
 

日志

 
 
关于我

曾经迷惑于一份距离 曾经感动于一个传说 …… 在仆仆风中 我伸手 抓住你我的缘分 …… “傻傻”的你 能闻到风中 你我的默契吗?!

网易考拉推荐

【亚洲】Hotel.Deluxe.2013.百星酒店  

2013-03-29 14:33:54|  分类: 亚洲 |  标签: |举报 |字号 订阅

  下载LOFTER 我的照片书  |
【亚洲】Hotel.Deluxe.2013.百星酒店 - 归鸿 - 逆风飞翔的鸟
◎译  名 Hotel Deluxe
◎片  名 百星酒店
◎年  代 2013
◎国  家 中国/中国香港
◎类  别 喜剧/剧情
◎语  言 国粤双语
◎片  长 1h:34m:06s
◎导  演 谷德昭 Vincent Kok
◎主  演 郑中基 Ronald Cheng
      薛凯琪 Fiona Sit
      杜汶泽 Chapman To
      毛舜筠 Teresa Mo
      黄百鸣 Bak-Ming Wong
      吴君如 Sandra Ng
      熊黛林 Lynn Hung
      吴千语 Karena Ng
      詹瑞文 Sui-man Chim
      葛民辉 Eric Kot
      于波 Bo Yu
      盛君 Jun Sheng
      叶璇 Michelle Ye
      田启文 Kai Man Tin
      程诚 Cheng Cheng
      夏春秋 Chun Chau Ha
      邵音音 Yam Yam Siu

                
◎简  介
   
  百星酒店是一间位于千岛湖的五星级酒店,但酒店中的工作人员都只有四星酒店的工作经验。这些员工中有想当经理的副经理包定(郑中基 饰),觉得自己是明星胚子的餐饮主管兼酒保彭俊(杜汶泽 饰),对待工作严谨苛刻的客房部主管桃姐(吴君如 饰),一心要嫁有钱人的前台嘉美(盛君 饰)。收到会有神秘评级员前来对酒店进行评级的消息,担心被降到四星的集团把炒人不贬眼的经理古黛(毛舜筠 饰)空降到了百星酒店,以促进服务。一个电影剧组来到酒店取景,剧组两大女主角凌梦露(吴千语 饰)和柯夏萍(熊黛林 饰)入住酒店,提出各种无理要求令员工们疲于奔命。与此同时,富商的千金宝宝(薛凯琪 饰)为了顺利继承遗产,决定在百星酒店举办一次假婚礼。包定找来新上任的英俊的保安主任雷劲(于波 饰)假扮新郎,而宝宝的舅舅志强(黄百鸣 饰)企图阻止婚礼、夺走遗产……



  General #1
    ID : 1 (0x1)
    Complete name : 00000.m2ts
    Format : BDAV
    Format/Info : Blu-ray Video
    File size : 16.6 GiB
    Duration : 1h 33mn
    Overall bit rate mode : Variable
    Overall bit rate : 25.5 Mbps
    Maximum Overall bit rate : 35.5 Mbps
  Video #4113
    ID : 4113 (0x1011)
    Menu ID : 1 (0x1)
    Format : AVC
    Format/Info : Advanced Video Codec
    Format profile : High@L4.1
    Format settings, CABAC : Yes
    Format settings, ReFrames : 4 frames
    Codec ID : 27
    Duration : 1h 33mn
    Bit rate mode : Variable
    Bit rate : 23.2 Mbps
    Maximum bit rate : 25.0 Mbps
    Width : 1 920 pixels
    Height : 1 080 pixels
    Display aspect ratio : 16:9
    Frame rate : 24.000 fps
    Standard : NTSC
    Color space : YUV
    Chroma subsampling : 4:2:0
    Bit depth : 8 bits
    Scan type : Progressive
    Bits/(Pixel*Frame) : 0.465
    Stream size : 15.1 GiB (91%)
    Color primaries : BT.709
    Transfer characteristics : BT.709
    Matrix coefficients : BT.709
  Audio #4352
    ID : 4352 (0x1100)
    Menu ID : 1 (0x1)
    Format : TrueHD / AC-3
    Mode extension : CM (complete main)
    Format settings, Endianness : Big
    Muxing mode : Stream extension
    Codec ID : 131
    Duration : 1h 33mn
    Bit rate mode : Variable / Constant
    Bit rate : 640 Kbps
    Maximum bit rate : 5 826 Kbps
    Channel(s) : 8 channels / 6 channels
    Channel positions : Front: L C R, Side: L R, Back: L R, LFE / Front: L C R, Side: L R, LFE
    Sampling rate : 96.0 KHz / 48.0 KHz
    Bit depth : 16 bits
    Stream size : 427 MiB (3%)
    Language : Chinese
  Audio #4353
    ID : 4353 (0x1101)
    Menu ID : 1 (0x1)
    Format : AC-3
    Format/Info : Audio Coding 3
    Mode extension : CM (complete main)
    Format settings, Endianness : Big
    Codec ID : 129
    Duration : 1h 33mn
    Bit rate mode : Constant
    Bit rate : 640 Kbps
    Channel(s) : 6 channels
    Channel positions : Front: L C R, Side: L R, LFE
    Sampling rate : 48.0 KHz
    Bit depth : 16 bits
    Compression mode : Lossy
    Stream size : 427 MiB (3%)
    Language : Chinese
  Text #4608
    ID : 4608 (0x1200)
    Menu ID : 1 (0x1)
    Format : PGS
    Codec ID : 144
    Language : Chinese
  Text #4609
    ID : 4609 (0x1201)
    Menu ID : 1 (0x1)
    Format : PGS
    Codec ID : 144
    Language : Chinese
  Text #4610
    ID : 4610 (0x1202)
    Menu ID : 1 (0x1)
    Format : PGS
    Codec ID : 144
    Language : English
  评论这张
 
阅读(129)| 评论(0)
推荐 转载

历史上的今天

评论

<#--最新日志,群博日志--> <#--推荐日志--> <#--引用记录--> <#--博主推荐--> <#--随机阅读--> <#--首页推荐--> <#--历史上的今天--> <#--被推荐日志--> <#--上一篇,下一篇--> <#-- 热度 --> <#-- 网易新闻广告 --> <#--右边模块结构--> <#--评论模块结构--> <#--引用模块结构--> <#--博主发起的投票-->
 
 
 
 
 
 
 
 
 
 
 
 
 
 

页脚

网易公司版权所有 ©1997-2017