注册 登录  
 加关注
   显示下一条  |  关闭
温馨提示!由于新浪微博认证机制调整,您的新浪微博帐号绑定已过期,请重新绑定!立即重新绑定新浪微博》  |  关闭

逆风飞翔的鸟

追逐风中散落的默契~

 
 
 

日志

 
 
关于我

曾经迷惑于一份距离 曾经感动于一个传说 …… 在仆仆风中 我伸手 抓住你我的缘分 …… “傻傻”的你 能闻到风中 你我的默契吗?!

网易考拉推荐

【动作】The.Marine.3.Homefront.2013.海军陆战队员3:国土防线  

2013-03-28 22:41:32|  分类: 动作 |  标签: |举报 |字号 订阅

  下载LOFTER 我的照片书  |
【动作】The.Marine.3.Homefront.2013.海军陆战队员3:国土防线 - 归鸿 - 逆风飞翔的鸟
◎译  名 海军陆战队员3/海军陆战队:国土防线
◎片  名 The Marine: Homefront/The Marine 3 Homefront
◎年  代 2013
◎国  家 美国
◎类  别 动作
◎语  言 英语
◎IMDB链接  http://www.imdb.com/title/tt2334841/
◎片  长 90 Min
◎导  演 斯科特·维普 Scott Wiper
◎主  演 尼尔·麦克唐纳 Neal McDonough
      阿什丽·贝尔 Ashley Bell
      迈克·米赞尼 Mike Mizanin
      迈克尔·艾克朗德 Michael Eklund ....Eckert
      Camille Sullivan ....Amanda
      Jeff Ballard ....Darren
      艾力克斯·保诺维奇 Aleks Paunovic ....Gabriel
      Reese Alexander ....SWAT Leader
      Paul Lazenby ....Kirk
      贾莱德·金索 Jared Keeso ....Harkin
      Darcy Laurie ....Teddy
      Tony Alcantar ....Glen
      Teach Grant ....Brooks
      Phillip Mitchell ....Leo
      肖恩·泰森 Sean Tyson ....Murray
      

◎简  介 

  一名海军陆战队员将尽一切努力去拯救被绑架的侄女,并停止由一个激进的民兵组织领导恐怖袭击事件。

    这个系列动作片俨然成了WWE明星们进入影坛的试金石,第三集请来的是摔角界当红明星迈克“The Miz”,看上去这小伙形象身手都不错。同前两部一样,影片情节依然很狗血:海军陆战队员杰克.卡特休假返家,得知妹妹被极端暴力份子绑架,在寻找妹妹过程中发现这伙歹徒正在密谋发动一起致命恐怖袭击。杰克只身一人,既要解救妹妹,又要阻止恐怖袭击以挽救数以千计的无辜生命。一个典型的美式孤胆英雄又诞生了!



  General #1
    ID : 1 (0x1)
    Complete name : 00000.m2ts
    Format : BDAV
    Format/Info : Blu-ray Video
    File size : 17.2 GiB
    Duration : 1h 30mn
    Overall bit rate mode : Variable
    Overall bit rate : 27.2 Mbps
    Maximum Overall bit rate : 35.5 Mbps
  Video #4113
    ID : 4113 (0x1011)
    Menu ID : 1 (0x1)
    Format : AVC
    Format/Info : Advanced Video Codec
    Format profile : High@L4.1
    Format settings, CABAC : Yes
    Format settings, ReFrames : 2 frames
    Codec ID : 27
    Duration : 1h 30mn
    Bit rate mode : Variable
    Bit rate : 26.4 Mbps
    Maximum bit rate : 35.0 Mbps
    Width : 1 920 pixels
    Height : 1 080 pixels
    Display aspect ratio : 16:9
    Frame rate : 23.976 fps
    Color space : YUV
    Chroma subsampling : 4:2:0
    Bit depth : 8 bits
    Scan type : Progressive
    Bits/(Pixel*Frame) : 0.530
    Stream size : 16.1 GiB (94%)
    Writing library : x264 core 129 r2230 1cffe9f
    Encoding settings : cabac=1 / ref=1 / deblock=1:0:0 / analyse=0x3:0x3 / me=dia / subme=1 / psy=1 / psy_rd=1.00:0.00 / mixed_ref=0 / me_range=16 / chroma_me=1 / trellis=0 / 8x8dct=1 / cqm=0 / deadzone=21,11 / fast_pskip=1 / chroma_qp_offset=0 / threads=6 / lookahead_threads=1 / sliced_threads=0 / slices=4 / nr=0 / decimate=1 / interlaced=0 / bluray_compat=1 / constrained_intra=0 / bframes=3 / b_pyramid=0 / b_adapt=1 / b_bias=0 / direct=1 / weightb=1 / open_gop=0 / weightp=1 / keyint=24 / keyint_min=1 / scenecut=40 / intra_refresh=0 / rc_lookahead=0 / rc=abr / mbtree=0 / bitrate=26373 / ratetol=1.0 / qcomp=0.60 / qpmin=0 / qpmax=69 / qpstep=4 / vbv_maxrate=35000 / vbv_bufsize=30000 / nal_hrd=vbr / ip_ratio=1.10 / pb_ratio=1.10 / aq=1:1.00
  Audio #4352
    ID : 4352 (0x1100)
    Menu ID : 1 (0x1)
    Format : AC-3
    Format/Info : Audio Coding 3
    Mode extension : CM (complete main)
    Format settings, Endianness : Big
    Codec ID : 129
    Duration : 1h 30mn
    Bit rate mode : Constant
    Bit rate : 640 Kbps
    Channel(s) : 6 channels
    Channel positions : Front: L C R, Side: L R, LFE
    Sampling rate : 48.0 KHz
    Bit depth : 16 bits
    Compression mode : Lossy
    Stream size : 413 MiB (2%)
    Language : English
  Text #4608
    ID : 4608 (0x1200)
    Menu ID : 1 (0x1)
    Format : PGS
    Codec ID : 144
    Language : Chinese
  Text #4609
    ID : 4609 (0x1201)
    Menu ID : 1 (0x1)
    Format : PGS
    Codec ID : 144
    Language : Chinese
  Text #4610
    ID : 4610 (0x1202)
    Menu ID : 1 (0x1)
    Format : PGS
    Codec ID : 144
    Language : English
  Text #4611
    ID : 4611 (0x1203)
    Menu ID : 1 (0x1)
    Format : PGS
    Codec ID : 144
    Language : Spanish
  Text #4612
    ID : 4612 (0x1204)
    Menu ID : 1 (0x1)
    Format : PGS
    Codec ID : 144
    Language : French
  评论这张
 
阅读(259)| 评论(0)
推荐 转载

历史上的今天

在LOFTER的更多文章

评论

<#--最新日志,群博日志--> <#--推荐日志--> <#--引用记录--> <#--博主推荐--> <#--随机阅读--> <#--首页推荐--> <#--历史上的今天--> <#--被推荐日志--> <#--上一篇,下一篇--> <#-- 热度 --> <#-- 网易新闻广告 --> <#--右边模块结构--> <#--评论模块结构--> <#--引用模块结构--> <#--博主发起的投票-->
 
 
 
 
 
 
 
 
 
 
 
 
 
 

页脚

网易公司版权所有 ©1997-2017