注册 登录  
 加关注
   显示下一条  |  关闭
温馨提示!由于新浪微博认证机制调整,您的新浪微博帐号绑定已过期,请重新绑定!立即重新绑定新浪微博》  |  关闭

逆风飞翔的鸟

追逐风中散落的默契~

 
 
 

日志

 
 
关于我

曾经迷惑于一份距离 曾经感动于一个传说 …… 在仆仆风中 我伸手 抓住你我的缘分 …… “傻傻”的你 能闻到风中 你我的默契吗?!

网易考拉推荐

【动作】The.Entitled.2011.人质游戏  

2013-03-28 22:37:51|  分类: 动作 |  标签: |举报 |字号 订阅

  下载LOFTER 我的照片书  |
【动作】The.Entitled.2011.人质游戏 - 归鸿 - 逆风飞翔的鸟
◎译   名 人质游戏
◎片   名 The Entitled/Bring the Night/Entitled
◎年   代 2011
◎国   家 加拿大
◎类   别 惊悚
◎IMDB 链接  http://www.imdb.com/title/tt1650535/
◎语   言 英语
◎字   幕 中文
◎片   长 91 mins 7 seconds
◎导   演 Aaron Woodley
◎主   演 雷·利奥塔 Ray Liotta  ....Richard Nader
       达斯汀·米利甘 Dustin Milligan  ....Nick Nader
       凯文·席格斯 Kevin Zegers  ....Paul Dynan
       劳拉·范德沃特 Laura Vandervoort  ....Hailey Jones
       戴文·博斯蒂克 Devon Bostick  ....Dean Taylor
       维克托·加柏 Victor Garber  ....Bob Vincent
       史蒂芬·麦克哈蒂 Stephen McHattie  ....Clifford Jones
       塔提阿娜·玛斯拉尼 Tatiana Maslany  ....Jenna
       John Bregar  ....Jeff Vincent
       Anthony Ulc  ....Frank Dynan


◎简   介  

    保罗的生活陷入困境,于是他决定绑架三名社会名流,以获得高昂赎金。但他的同伙开始与受害者嬉闹培养起交情,单纯的绑架事件逐渐失控。完美计画开始崩解,保罗必须抢先一步,来扭转这场荒谬游戏!



  General #1
    ID : 1 (0x1)
    Complete name : 00000.m2ts
    Format : BDAV
    Format/Info : Blu-ray Video
    File size : 18.0 GiB
    Duration : 1h 31mn
    Overall bit rate mode : Variable
    Overall bit rate : 28.3 Mbps
    Maximum Overall bit rate : 35.5 Mbps
  Video #4113
    ID : 4113 (0x1011)
    Menu ID : 1 (0x1)
    Format : AVC
    Format/Info : Advanced Video Codec
    Format profile : High@L4.1
    Format settings, CABAC : Yes
    Format settings, ReFrames : 2 frames
    Codec ID : 27
    Duration : 1h 31mn
    Bit rate mode : Variable
    Bit rate : 26.6 Mbps
    Width : 1 920 pixels
    Height : 1 080 pixels
    Display aspect ratio : 16:9
    Frame rate : 23.976 fps
    Color space : YUV
    Chroma subsampling : 4:2:0
    Bit depth : 8 bits
    Scan type : Progressive
    Bits/(Pixel*Frame) : 0.534
    Stream size : 16.9 GiB (94%)
  Audio #4352
    ID : 4352 (0x1100)
    Menu ID : 1 (0x1)
    Format : TrueHD / AC-3
    Mode extension : CM (complete main)
    Format settings, Endianness : Big
    Muxing mode : Stream extension
    Codec ID : 131
    Duration : 1h 31mn
    Bit rate mode : Variable / Constant
    Bit rate : 640 Kbps
    Maximum bit rate : 4 224 Kbps
    Channel(s) : 6 channels
    Channel positions : Front: L C R, Side: L R, LFE
    Sampling rate : 48.0 KHz
    Bit depth : 16 bits
    Stream size : 417 MiB (2%)
    Language : English
  Text #4608
    ID : 4608 (0x1200)
    Menu ID : 1 (0x1)
    Format : PGS
    Codec ID : 144
    Language : Chinese
  Text #4609
    ID : 4609 (0x1201)
    Menu ID : 1 (0x1)
    Format : PGS
    Codec ID : 144
    Language : Chinese
  Text #4610
    ID : 4610 (0x1202)
    Menu ID : 1 (0x1)
    Format : PGS
    Codec ID : 144
    Language : Danish
  Text #4611
    ID : 4611 (0x1203)
    Menu ID : 1 (0x1)
    Format : PGS
    Codec ID : 144
    Language : Finnish
  Text #4612
    ID : 4612 (0x1204)
    Menu ID : 1 (0x1)
    Format : PGS
    Codec ID : 144
    Language : Norwegian
  Text #4613
    ID : 4613 (0x1205)
    Menu ID : 1 (0x1)
    Format : PGS
    Codec ID : 144
    Language : Swedish
  评论这张
 
阅读(131)| 评论(0)
推荐 转载

历史上的今天

在LOFTER的更多文章

评论

<#--最新日志,群博日志--> <#--推荐日志--> <#--引用记录--> <#--博主推荐--> <#--随机阅读--> <#--首页推荐--> <#--历史上的今天--> <#--被推荐日志--> <#--上一篇,下一篇--> <#-- 热度 --> <#-- 网易新闻广告 --> <#--右边模块结构--> <#--评论模块结构--> <#--引用模块结构--> <#--博主发起的投票-->
 
 
 
 
 
 
 
 
 
 
 
 
 
 

页脚

网易公司版权所有 ©1997-2017