注册 登录  
 加关注
   显示下一条  |  关闭
温馨提示!由于新浪微博认证机制调整,您的新浪微博帐号绑定已过期,请重新绑定!立即重新绑定新浪微博》  |  关闭

逆风飞翔的鸟

追逐风中散落的默契~

 
 
 

日志

 
 
关于我

曾经迷惑于一份距离 曾经感动于一个传说 …… 在仆仆风中 我伸手 抓住你我的缘分 …… “傻傻”的你 能闻到风中 你我的默契吗?!

网易考拉推荐

【剧情】Sleepwalking.2008.失控旅程  

2013-03-18 19:44:20|  分类: 剧情 |  标签: |举报 |字号 订阅

  下载LOFTER 我的照片书  |
【剧情】Sleepwalking.2008.失控旅程 - 归鸿 - 逆风飞翔的鸟
◎译   名 梦游/失控旅程(台)/Ferris Wheel
◎片   名 Sleepwalking
◎年   代 2008
◎国   家 加拿大/美国
◎类   别 剧情
◎IMDB 链接  http://www.imdb.com/title/tt0888693/
◎语   言 英语
◎字   幕 中文
◎片   长 101 mins 3 seconds
◎导   演 比尔·马赫 Bill Maher
◎主   演 尼克·斯塔尔 Nick Stahl  ....James
       安娜索菲亚·罗伯 Annasophia Robb  ....Tara
       查理兹·塞隆 Charlize Theron  ....Joleen
       丹尼斯·霍珀 Dennis Hopper  ....Mr. Reedy
       伍迪·哈里森 Woody Harrelson  ....Randall
       黛布拉-李·弗勒斯 Deborra-Lee Furness  ....Danni
       考乐姆·吉斯·雷尼 Callum Keith Rennie  ....Will
       Amy Matysio  ....Sharon
       Simon Chin  ....Randall's Friend
       Shannon Jardine  ....Mom
       Troy Skog  ....Warren
       Mike Ennis  ....Cop #2
       Peter Scoular  ....Dad
       Lori Ann Kennedy  ....Foster Care Worker
       Emily Wees  ....Nicole
       Milan Aveyard  ....Girl #1


◎简   介  

  有的人,注定要从孩子的身上寻找到生命的责任与方向。由于男朋友被拘留,乔琳·里德被赶出了家门......现在她迫切需要一个能够挡风遮雨的地方,好安置自己和11岁的小女儿泰拉。乔琳找到许久未曾联系过的弟弟詹姆斯,他没有任何怀疑就让她们搬进了自己租住的公寓中。

  然而没过多久,乔琳就和另一个男人私奔了,她留下了泰拉,让毫无准备的詹姆斯独立抚养着这个正在经历着青春期的小女孩。虽然詹姆斯竭尽所能地想让泰拉生活得快乐,摆脱母亲不辞而别的阴影,然而事情的发展很快就脱离了他的控制范围:他不但丢了工作,还连累泰拉被送进收容所。

  为了避免不必要的麻烦,詹姆斯做出了一个宿命般的重大决定,不但可以帮助他将生活归于原位,也迫使着他面对自己埋藏已久的心魔......詹姆斯带着泰拉离开了公寓,以父女的新身份展开了一场旅行,当他努力地担当起泰拉从来没有经历过的父亲的角色时,却发现自己第一次找到了生活中真正的目标,意义也就变得越来越重大。詹姆斯和泰拉的这场公路之旅,以位于犹他州、詹姆斯出生并长大的农场作为终点。

  詹姆斯重回到记忆中的童年,他与他的父亲之间的旧伤痕也再次被撕裂,由于詹姆斯的父亲喜欢用情绪化的辱骂甚至是暴打来教育孩子,才使得詹姆斯养成了现在的这种有如浮萍般飘忽不定的性格。 

◎一句话评论:

对于安娜索菲亚?罗伯来说,她在影片中奉献了一次非常有突破性的表演,对于她的事业来说是一个难能可贵的机会。
——《好莱坞报导》

影片中的每一句对白都给人一种夸大其词的感觉,每一个角色都被设置在框框当中,苍白而无力。
——《倾向性杂志》

这里讲述的是一个糟糕的故事,好在还有演员卖力的演出,稍稍减轻了你在观景过程中遭受到的折磨。
——《国际电影杂志》

作为一位喜欢谩骂打人的父亲,丹尼斯?霍珀的表演含量实在是太单一了,丝毫没有什么艺术感,反倒像是一名精神错乱的疯子。
——《西雅图晨报》


◎幕后制作

【当不可能变成可能时】

    当编剧扎克·斯坦福(Zac Stanford)完成了他创作的原创剧本《梦游》的第一版手稿时,随即将它放进了书桌的一个抽屉里,并很快就将它遗忘在了那里--这差不多是发生在6年以前的事情了。那个时候,因为斯坦福根本就不认识任何能和电影沾上边儿的人,所以他几乎已经放弃了将这个故事搬上大银幕的想法,斯坦福说:“我之所以写下这个故事,纯粹是为了做一件能让自己高兴、有意义的事情。我只是一个喜欢写作的人,出于某种原因,我想把这个故事记录下来。然而当我完成了剧本之后,却该死地发现自己根本就没有机会将它拍成电影,反正我是被摆在我面前的巨大反差彻底地打败了。”

    不过,当扎克·斯坦福的另一个剧本终于引起了好莱坞的兴趣时,他也认识了比尔·马赫(Bill Maher)--那个后来将《梦游》作为自己在大银幕上的导演处女作的人。初相识的时候,马赫还是一名专攻电脑特效的技术人员,已经从事电影方面的工作好几年了,他曾参与的作品中,包含了像《X战警》、《蝙蝠侠与罗宾》和《火星人玩转地球》这样的科幻大片……马赫一直在寻找一个机会,想尝试制作一些属于自己的东西,以扩展他那非常有创造力的电影天分。当他遇到斯坦福后,两人很快就成了好朋友,因为他们在电影方面的选择和品味上,出奇地一致,马赫回忆道:“一天,斯坦福拿出了那个被他锁在抽屉里好几年的剧本,然后对我说,‘读读它吧。’对于我来说,这就是一个开始。”

    比尔·马赫至今还记得,他第一次阅读《梦游》中的故事时,所受到的那种强有力的冲击:“这是我读过的最真诚的作品,已经真诚到了一种残酷的地步--它很有可能会伤害到所有你认为是正确的东西,而且是以一种非常有趣的方式。至于交织在其中的特色人物,也因为彼此的作用而显得异常地灿烂。它就像是一块未被发现的金子,因为纯净无垢而让你忍不住发出赞美的叹息,这本来就是一种非常罕见的现象。从扎克·斯坦福将剧本交给我的那一刻开始,我就知道自己不会再让它从我手中溜走,直到它被拍成电影。”

    其实扎克·斯坦福在创作剧本的时候,大部分灵感都是依据他对自己过去的经历的回忆,尽管故事并非是他的自传。再加上他后来身为人父,对剧本也起到了更加重要的促进作用,斯坦福的解释是:“由于我是在乡下长大的,所以对这类角色是比较了解的。我刚开始下笔的时候,我的女儿才学会走路,所以在创作的过程中,我有意把自己的情感表达注入其中,因为那样一个时期,我的思想是非常尖锐且剧烈的,我总是在思考一些极端的事情:为什么我们不能照顾自己的孩子?在什么样的情况下,人们才会丢弃他们的孩子呢?尼克·斯塔尔所饰演的角色--詹姆斯,不管他的为人和能力怎么样,他至少是那种会对一个孩子负起责任的人,他拥有起码的责任心,而他也真的这么做了。”

    扎克·斯坦福和比尔·马赫从一开始就知道,想让《梦游》的拍摄工作顺利进行,本来就是一件非常困难的事情,部分原因就是剧本中的故事素材与好莱坞典型的流水线作业相去甚远,直到曾获得奥斯卡影后的查理兹·塞隆以制片人的身份加入进来,为了让这个故事在大银幕上得到更好的体现,她还饰演了其中一个非常关键的角色--乔琳·里德,塞隆说:“我对剧本最初的感觉,就是它的强大、不同寻常和原创性,当我读完整个故事的时候,止不住泪流满面,因为它以一种勇敢的姿态,大胆地说出了一些在正常的电影中见不到的东西--我们能够拥有和创造属于自己的生活,无需非要活在黑暗或阴影当中,或者因为过去的回忆以及我们的家人,忍受无尽的困扰与折磨。虽然我们的血管中可能流淌着相同的红色血液,但并不意味着我们就得犯下同样的错误。”

【查理兹·塞隆制造】

    随着查理兹·塞隆的到来,电影人们最初面对的一些难题,都开始迎刃而解。当塞隆创办的电影制作公司搬到了新的办公楼后,她正好有机会可以拜访一下,在同一个楼里办公的另一家电影公司的创始人之一A·J·迪克斯(A.J. Dix)。她把剧本交给迪克斯后,随即把他拉入伙,成为影片的制作片人之一,迪克斯说:“我早就知道,塞隆是一位拥有着完美的品味的女人,因为她的推荐,我很快就读完了剧本,而且发现自己很喜欢这个故事,它的表现形式是不多见的,直接叩响了我的心门,所以我们毫不犹豫地就决定为影片出资投拍。”

    由于查理兹·塞隆在电影界的威望和良好的人际关系,她为这个剧本召集了一批非常有天分的演员,其中当然也包括几个响当当的名字--比如说伍迪·哈里森和丹尼斯·霍珀,导演比尔·马赫说:“也许影片最开始吸引人们注意力的地方,确实是塞隆的名字。可是当他们看到了剧本之后,就明白摆在自己面前的是一部怎样优秀的作品了。”

    于是,那个被扎克·斯坦福关在抽屉里长达6年的剧本,最终于2006年10正式开拍……这也使得电影人们有一些时间去思考如何制作这部影片,好在随着时间的流逝,并没有消除这个故事本身的闪光之处,比尔·马赫表示:“我有许多前期准备工作需要做,我觉得是影片本身所依靠的素材给了我很大的信心,当我最终得到了那个将它拍成电影的机会时,所有的一切都变得鲜活起来。”

    影片的制片人之一罗布·梅里利斯(Rob Merilees)说:“我和比尔·马赫坐在一起开始讨论影片的时候,他向我解释了存在于他的想象力中的每一个值得称道的伟大细节,他还带来了差不多一个小时的影像为我展示画面的力量。我真的被他给说服了,那种感觉就好像是马赫已经为这部作品思考了好多年了,在他的脑海里,他早就安排好了一切。”查理兹·塞隆则补充道:“马赫花掉太多的时间去研究这个故事了,他里里外外彻彻底底地分析了一番,几乎没有他没想到的东西,我想他做到了一个导演最应该做的事情。”
对于比尔·马赫来说,当他眼见如此星光闪闪的演员阵容和工作人员的时候,确实感受到自己肩膀上的压力减轻了不少,尤其是当他看到摄影师胡安·鲁兹·安切艾(Juan Ruiz Anchía)的工作成果时,立马就安心了,马赫回忆道:“我开始的时候,每天都在观察他做的工作,我发现他真的捕捉到了非凡且特别的画面,我经常会在他身边发出惊叹,‘哇,看起来真不错!’这也就意味着我可以完全放心,专心去安排演员的表演了。”


◎幕后花絮

这并不是查理兹·塞隆首次和第一次当导演的人合作了,比如说派蒂·杰金斯(Patty Jenkins),他的导演处女作《女魔头》就帮助塞隆得到了奥斯卡影后。

影片在拍摄的时候,使用的假名字是《摩天轮》(Ferris Wheel)。



  General #1
    ID : 1 (0x1)
    Complete name : 00000.m2ts
    Format : BDAV
    Format/Info : Blu-ray Video
    File size : 25.8 GiB
    Duration : 1h 41mn
    Overall bit rate mode : Variable
    Overall bit rate : 36.6 Mbps
    Maximum Overall bit rate : 35.5 Mbps
  Video #4113
    ID : 4113 (0x1011)
    Menu ID : 1 (0x1)
    Format : AVC
    Format/Info : Advanced Video Codec
    Format profile : High@L4.1
    Format settings, CABAC : Yes
    Format settings, ReFrames : 2 frames
    Format settings, GOP : M=1, N=10
    Codec ID : 27
    Duration : 1h 41mn
    Bit rate mode : Variable
    Bit rate : 27.6 Mbps
    Width : 1 920 pixels
    Height : 1 080 pixels
    Display aspect ratio : 16:9
    Frame rate : 23.976 fps
    Color space : YUV
    Chroma subsampling : 4:2:0
    Bit depth : 8 bits
    Scan type : Progressive
    Bits/(Pixel*Frame) : 0.555
    Stream size : 19.5 GiB (75%)
  Audio #4352
    ID : 4352 (0x1100)
    Menu ID : 1 (0x1)
    Format : PCM
    Format settings, Endianness : Big
    Format settings, Sign : Signed
    Muxing mode : Blu-ray
    Codec ID : 128
    Duration : 1h 41mn
    Bit rate mode : Constant
    Bit rate : 6 912 Kbps
    Channel(s) : 6 channels
    Channel positions : Front: L C R, Side: L R, LFE
    Sampling rate : 48.0 KHz
    Bit depth : 24 bits
    Stream size : 4.88 GiB (19%)
    Language : English
  Audio #4353
    ID : 4353 (0x1101)
    Menu ID : 1 (0x1)
    Format : AC-3
    Format/Info : Audio Coding 3
    Mode extension : CM (complete main)
    Format settings, Endianness : Big
    Codec ID : 129
    Duration : 1h 41mn
    Bit rate mode : Constant
    Bit rate : 640 Kbps
    Channel(s) : 6 channels
    Channel positions : Front: L C R, Side: L R, LFE
    Sampling rate : 48.0 KHz
    Bit depth : 16 bits
    Compression mode : Lossy
    Stream size : 463 MiB (2%)
    Language : English
  Text #4608
    ID : 4608 (0x1200)
    Menu ID : 1 (0x1)
    Format : PGS
    Codec ID : 144
    Language : Chinese
  Text #4609
    ID : 4609 (0x1201)
    Menu ID : 1 (0x1)
    Format : PGS
    Codec ID : 144
    Language : Chinese
  Text #4610
    ID : 4610 (0x1202)
    Menu ID : 1 (0x1)
    Format : PGS
    Codec ID : 144
    Language : English
  Text #4611
    ID : 4611 (0x1203)
    Menu ID : 1 (0x1)
    Format : PGS
    Codec ID : 144
    Language : Spanish
  评论这张
 
阅读(171)| 评论(0)
推荐 转载

历史上的今天

在LOFTER的更多文章

评论

<#--最新日志,群博日志--> <#--推荐日志--> <#--引用记录--> <#--博主推荐--> <#--随机阅读--> <#--首页推荐--> <#--历史上的今天--> <#--被推荐日志--> <#--上一篇,下一篇--> <#-- 热度 --> <#-- 网易新闻广告 --> <#--右边模块结构--> <#--评论模块结构--> <#--引用模块结构--> <#--博主发起的投票-->
 
 
 
 
 
 
 
 
 
 
 
 
 
 

页脚

网易公司版权所有 ©1997-2017