注册 登录  
 加关注
   显示下一条  |  关闭
温馨提示!由于新浪微博认证机制调整,您的新浪微博帐号绑定已过期,请重新绑定!立即重新绑定新浪微博》  |  关闭

逆风飞翔的鸟

追逐风中散落的默契~

 
 
 

日志

 
 
关于我

曾经迷惑于一份距离 曾经感动于一个传说 …… 在仆仆风中 我伸手 抓住你我的缘分 …… “傻傻”的你 能闻到风中 你我的默契吗?!

网易考拉推荐

【剧情】So.Undercover.2012.女生部里的秘密  

2013-02-22 15:33:06|  分类: 剧情 |  标签: |举报 |字号 订阅

  下载LOFTER 我的照片书  |
【剧情】So.Undercover.2012.女生部里的秘密 - 归鸿 - 逆风飞翔的鸟
◎译   名 女生部里的秘密
◎片   名 So Undercover  
◎年   代 2012
◎地   区 美国
◎类   别 喜剧
◎IMDB 链接 http://www.imdb.com/title/tt1766094/
◎语   言 英语
◎字   幕 中文
◎片   长 93 mins 39 seconds
◎导   演 汤姆·沃恩 Tom Vaughan
◎主   演 麦莉·赛勒斯 Miley Cyrus  ....Molly
       乔什·鲍曼 Josh Bowman  ....Nicholas
       杰里米·皮文 Jeremy Piven  ....Armon
       Alexis Knapp  ....Taylor
       梅根·朴 Megan Park  ....Cotton
       奥图姆·瑞瑟 Autumn Reeser  ....Bizzy
       马修·塞特尔 Matthew Settle  ....Professor Talloway
       麦克·奥麦利 Mike O'Malley  ....Sam
       凯莉·奥斯本 Kelly Osbourne  ....Becky
       安德里亚·弗兰克 Andrea Frankle  ....Agent Keller
       Lauren McKnight  ....Alex
       艾洛斯·慕福特 Eloise Mumford  ....Sasha
       Brittney Alger  ....Summer
       Cameron Deane Stewart  ....Cameron Harrison
       Ric Reitz  ....State Representative
       兰德尔·瑞德 Randal Reeder  ....Hansen
       Jimmy Lee Jr.  ....Infidelity Trucker
       Phil Austin  ....Dr. Millson
       Danielle Greenup  ....KKZ Sorority Girl
       Stephen Warren  ....College Student
       Elton LeBlanc  ....College Professor
       Cynthia LeBlanc  ....College Professor
       J. Omar Castro
       Leticia Jimenez  ....Senator's Girlfriend
       Felder Charbonnet  ....Officer Brison
       David Lee Valle  ....FBI Agent
       Alice Ford  ....KKZ Sorority Girl
       Brittany Soileau  ....Sorority Girl
       Ashley Treadaway  ....Another Woman
       Michael Rogers  ....Guy in Jazz Club (as Michael Rogers)
       Lawrence LeJohn  ....Agent Lawry
       Blain Sanchez  ....Basketball Player
       Morgan Calhoun  ....Hunter
       Jaanika Kaarpalu  ....KKZ Sorority Girl
       Jessica Poumaroux  ....KKZ Sorority Girl
       Adam Quirch  ....Fraternity Guy
       Shafer Mendoza  ....Tiki Guy
       Cindy Williamson  ....Truck Stop Waitress
       Chaz Sumer  ....Molly's Brother
       Ryan Hebert  ....Jazz Patron
       Brian Peterson  ....Zingatti
       Joshua Aucoin  ....Fraternity Guy (uncredited)
       Caitlyn Bosarge  ....College Student (uncredited)
       BRANDON bracey  ....Frat Guy (uncredited)
       Richard Brien  ....Drunk Frat Guy (uncredited)
       Matthew Carmichael  ....Frat Guy (uncredited)
       格兰·凯斯 Grant Case  ....Pool Partier (uncredited)
       Erica Day  ....Sorority Girl (uncredited)
       Julie Ann Doan  ....Hotel Guest (uncredited)
       Annie Doiron  ....Student (uncredited)
       Kasey Emas  ....Summer's Friend (uncredited)
       艾瑞克·汉宁 Eric Hennig  ....College Student #1 / Fraternity Guy (uncredited)
       Timothy Hinrichs  ....Fraternity Guy / College Student (uncredited)
       Kaitlin Hoychick  ....Car Wash Sorority Girl (uncredited)
       John C. Klein  ....Truck Stop Diner (uncredited)
       Jamie Mackey  ....College Student (uncredited)
       Phillip Rao  ....Shirtless Pool Partier (uncredited)
       Heather Robbins  ....Sorority Girl (uncredited)
       Paige Roberts  ....KKZ Core Sorority Girl (uncredited)
       Courtney Rood  ....KKZ Sorority Sister (uncredited)
       Christopher Severio  ....Bean Bag Player (uncredited)
       Andy Sims  ....College Professor (uncredited)
       Logan Douglas Smith  ....College Professor (uncredited)
       Terry Lee Smith  ....Hotel Guest (uncredited)
       James Lesley Taylor  ....Man on Sidewalk (uncredited)
       劳伦·托马斯 Lauren Thomas  ....KKZ Sorority Girl (uncredited)
       Tony Tillman  ....College Student (uncredited)
       Ricky Vo  ....Student (uncredited)
       Zac Waggener  ....Student (uncredited)
       Chase Walker  ....Guy Exiting Spacewalk (uncredited)
       Justin Paul Walker  ....College student


◎简   介  

  茉莉·摩里斯(麦莉·赛勒斯 Miley Cyrus 饰)原是一个街头混混的小太妹,虽然她的父亲是一个私家侦探。机缘巧合,为了保护网民之女,麦莉被FBI相中,吸收并为她进行连番大改造后,茉莉成功混进女学生联谊会里,保护一个重要证人。

  但茉莉进入这贵族女校后才发现,原来什么卖友求荣、放饵钓鱼、暗杀行动,通通不够看!爱搞小团体、青春多角恋、选美生死斗,才是大难关!然后随着她调查的深入,却发现真相越加扑朔迷离,又要坐稳流行教主宝座、又要逮住恶棍绳之以法,茉莉怎能不拿出全副的美貌、智慧和力量?


◎幕   后

  本片汇集不少美国年轻一代的俊男美女明星。红透美国歌坛的麦莉·赛勒斯,人气偶像乔什·鲍曼,曾经在《摇滚帮》,《明星伙伴》,《失控陪审团》中有不俗表现的杰里米·皮文,《破釜沉舟》里的性感女星奥图姆·瑞瑟等均参演该片。

  迪士尼电视剧《汉娜·蒙塔娜》捧红新一代童星麦莉,歌舞双全使得麦莉如今正是大红大紫的新星,更因甜美长相被粉丝送以“甜美教主”昵称。作为新一代流行小天后,在电影方面也是人气逼人。2008年,迪士尼为麦莉量身打造的《麦莉·赛勒斯演唱会纪实》,以3D电影的方式真实记录这场巡演。在电影专家看来,虽然《麦莉·赛勒斯演唱会纪实》的评分低到不能再低,上映时却成绩辉煌,破下诸多纪录,足见麦莉有多红。

  目麦莉出演的几部电影,如《最后一支歌》、《乖乖女是大明星》、《女生部里的秘密》等,都是轻松时尚的喜剧片,基本都是看中麦莉清纯甜美的形象,谈不上演技。不过,凭借90后正青春的优势,麦莉的演绎道路还很长。



   General #1
      ID : 1 (0x1)
      Complete name : 00000.m2ts
      Format : BDAV
      Format/Info : Blu-ray Video
      File size : 18.2 GiB
      Duration : 1h 33mn
      Overall bit rate mode : Variable
      Overall bit rate : 27.8 Mbps
      Maximum Overall bit rate : 35.5 Mbps
   Video #4113
      ID : 4113 (0x1011)
      Menu ID : 1 (0x1)
      Format : AVC
      Format/Info : Advanced Video Codec
      Format profile : High@L4.1
      Format settings, CABAC : Yes
      Format settings, ReFrames : 4 frames
      Codec ID : 27
      Duration : 1h 33mn
      Bit rate mode : Variable
      Bit rate : 26.0 Mbps
      Maximum bit rate : 33.0 Mbps
      Width : 1 920 pixels
      Height : 1 080 pixels
      Display aspect ratio : 16:9
      Frame rate : 23.976 fps
      Color space : YUV
      Chroma subsampling : 4:2:0
      Bit depth : 8 bits
      Scan type : Progressive
      Bits/(Pixel*Frame) : 0.523
      Stream size : 17.0 GiB (94%)
   Audio #4352
      ID : 4352 (0x1100)
      Menu ID : 1 (0x1)
      Format : TrueHD / AC-3
      Mode extension : CM (complete main)
      Format settings, Endianness : Big
      Muxing mode : Stream extension
      Codec ID : 131
      Duration : 1h 33mn
      Bit rate mode : Variable / Constant
      Bit rate : 640 Kbps
      Maximum bit rate : 2 616 Kbps
      Channel(s) : 6 channels
      Channel positions : Front: L C R, Side: L R, LFE
      Sampling rate : 48.0 KHz
      Bit depth : 16 bits
      Stream size : 429 MiB (2%)
      Language : English
   Text #4608
      ID : 4608 (0x1200)
      Menu ID : 1 (0x1)
      Format : PGS
      Codec ID : 144
      Language : Chinese
   Text #4609
      ID : 4609 (0x1201)
      Menu ID : 1 (0x1)
      Format : PGS
      Codec ID : 144
      Language : Chinese
   Text #4610
      ID : 4610 (0x1202)
      Menu ID : 1 (0x1)
      Format : PGS
      Codec ID : 144
      Language : English
   Text #4611
      ID : 4611 (0x1203)
      Menu ID : 1 (0x1)
      Format : PGS
      Codec ID : 144
      Language : Spanish
  评论这张
 
阅读(260)| 评论(0)
推荐 转载

历史上的今天

在LOFTER的更多文章

评论

<#--最新日志,群博日志--> <#--推荐日志--> <#--引用记录--> <#--博主推荐--> <#--随机阅读--> <#--首页推荐--> <#--历史上的今天--> <#--被推荐日志--> <#--上一篇,下一篇--> <#-- 热度 --> <#-- 网易新闻广告 --> <#--右边模块结构--> <#--评论模块结构--> <#--引用模块结构--> <#--博主发起的投票-->
 
 
 
 
 
 
 
 
 
 
 
 
 
 

页脚

网易公司版权所有 ©1997-2017