注册 登录  
 加关注
   显示下一条  |  关闭
温馨提示!由于新浪微博认证机制调整,您的新浪微博帐号绑定已过期,请重新绑定!立即重新绑定新浪微博》  |  关闭

逆风飞翔的鸟

追逐风中散落的默契~

 
 
 

日志

 
 
关于我

曾经迷惑于一份距离 曾经感动于一个传说 …… 在仆仆风中 我伸手 抓住你我的缘分 …… “傻傻”的你 能闻到风中 你我的默契吗?!

网易考拉推荐

【剧情】Make.It.Happen.2008.舞梦成真  

2013-02-22 15:24:10|  分类: 剧情 |  标签: |举报 |字号 订阅

  下载LOFTER 我的照片书  |
【剧情】Make.It.Happen.2008.舞梦成真 - 归鸿 - 逆风飞翔的鸟
【译  名】舞梦成真/辣舞激情/唯舞独尊
【片  名】Make It Happen
【年  代】2008
【国  家】美国
【类  别】剧情  
【语  言】英语
【IMDB链接】http://www.imdb.cn/title/tt0822868/
【片  长】90 mins
【导  演】达伦·格兰特 Darren Grant
【主  演】玛丽·伊丽莎白·文斯蒂德 Mary Elizabeth Winstead  ....Lauryn
      泰莎·汤普森 Tessa Thompson  ....Dana
      瑞利·史密斯 Riley Smith  ....Russ
      John Henry Reardon  ....Joel
      朱莉莎·伯尔穆德兹 Julissa Bermudez  ....Carmen
      Ashley Roberts  ....Brooke
      Karen LeBlanc  ....Brenda
      Matt Kippen  ....Wayne
      Erik Fjeldsted  ....Marty - Mechanic
      Aaron Merke  ....Clay - Mechanic
      Leigh Enns  ....Flirtatious Customer
      Christina Grace  ....Female Dancer - Auditions (as Christina Grace SY)
      Debbie Patterson  ....Audition Receptionist
      Sofia Costantini  ....Choreographer's Assistant
      Jeremy Koz  ....Cool Looking Guy
      Gordon Tanner  ....David Lancer - Choreographer
      Kyle Nobess  ....Doorman Charlie - Ruby's
      泰瑞·雷 Terry Ray  ....Birthday Party Guy


【剧情简介】

  劳瑞恩是一个小镇姑娘,她离开家乡搬到芝加哥,就是希望能进入芝加哥音乐舞蹈学院进行学习,以实现自己当舞蹈家的梦想。然而在面试失败并经历了许多天灾人祸后,劳瑞恩被迫在一家夜总会里进行表演维持生活。夜总会里的人形形色色,劳瑞恩在与他们的接触中重新发现了自己,并开始明白计划也许会改变,但是梦想永远将执着下去。

【幕后制作】

  以舞蹈或体育等为题材的电影往往都有它们固定的一票支持者,毕竟喜欢这类电影的动感和活力的人就如同另一群喜爱武打片中的动作场面的忠实观众或其他爱被恐怖片吓的影迷。我也早自《辣身舞》(Dirty Dancing),便开始喜欢上这类舞蹈电影,喜欢他们舞得热闹、舞得忘我的气氛营造。通常电影中的另两个卖点便是主人翁的成长和过程中所激发出超绚舞姿。

  《舞出精彩》也以相同的剧情发展,只可惜,它并没有能够制造出太大的惊喜或火花。在电影中段的夜总会舞蹈让人有小型《红磨坊》(Moulin Rouge)的味道,也有些许《魅力四射》(Coyote Ugly)的影子。

  与较现代的《舞出我人生》(Step Up)相比,《舞出精彩》无法缔造新的舞蹈电影热潮。



   General #1
      ID : 1 (0x1)
      Complete name : 00000.m2ts
      Format : BDAV
      Format/Info : Blu-ray Video
      File size : 15.8 GiB
      Duration : 1h 30mn
      Overall bit rate mode : Variable
      Overall bit rate : 25.1 Mbps
      Maximum Overall bit rate : 35.5 Mbps
   Video #4113
      ID : 4113 (0x1011)
      Menu ID : 1 (0x1)
      Format : AVC
      Format/Info : Advanced Video Codec
      Format profile : High@L4.1
      Format settings, CABAC : Yes
      Format settings, ReFrames : 4 frames
      Format settings, GOP : M=3, N=24
      Codec ID : 27
      Duration : 1h 30mn
      Bit rate mode : Variable
      Bit rate : 21.3 Mbps
      Maximum bit rate : 32.0 Mbps
      Width : 1 920 pixels
      Height : 1 080 pixels
      Display aspect ratio : 16:9
      Frame rate : 23.976 fps
      Standard : NTSC
      Color space : YUV
      Chroma subsampling : 4:2:0
      Bit depth : 8 bits
      Scan type : Progressive
      Bits/(Pixel*Frame) : 0.429
      Stream size : 13.4 GiB (85%)
      Color primaries : BT.709
      Transfer characteristics : BT.709
      Matrix coefficients : BT.709
   Audio #4352
      ID : 4352 (0x1100)
      Menu ID : 1 (0x1)
      Format : DTS
      Format/Info : Digital Theater Systems
      Format profile : HRA / Core
      Mode : 16
      Format settings, Endianness : Big
      Muxing mode : Stream extension
      Codec ID : 133
      Duration : 1h 30mn
      Bit rate mode : Constant
      Bit rate : 2 814 Kbps / 1 509 Kbps
      Channel(s) : 6 channels
      Channel positions : Front: L C R, Side: L R, LFE
      Sampling rate : 48.0 KHz
      Bit depth : 16 bits
      Compression mode : Lossy
      Stream size : 1.77 GiB (11%)
      Language : English
   Text #4608
      ID : 4608 (0x1200)
      Menu ID : 1 (0x1)
      Format : PGS
      Codec ID : 144
      Delay relative to video : 25s 609ms
      Language : Chinese
   Text #4609
      ID : 4609 (0x1201)
      Menu ID : 1 (0x1)
      Format : PGS
      Codec ID : 144
      Delay relative to video : 25s 609ms
      Language : Chinese
   Text #4610
      ID : 4610 (0x1202)
      Menu ID : 1 (0x1)
      Format : PGS
      Codec ID : 144
      Delay relative to video : 25s 734ms
      Language : German
  评论这张
 
阅读(111)| 评论(0)
推荐 转载

历史上的今天

在LOFTER的更多文章

评论

<#--最新日志,群博日志--> <#--推荐日志--> <#--引用记录--> <#--博主推荐--> <#--随机阅读--> <#--首页推荐--> <#--历史上的今天--> <#--被推荐日志--> <#--上一篇,下一篇--> <#-- 热度 --> <#-- 网易新闻广告 --> <#--右边模块结构--> <#--评论模块结构--> <#--引用模块结构--> <#--博主发起的投票-->
 
 
 
 
 
 
 
 
 
 
 
 
 
 

页脚

网易公司版权所有 ©1997-2017